img image001 image001 image001 image001 image001 image001 image001 image001 image001 image001 image001 image001 image001 image001 image001

Planets Sun Sun Sun
Статистика раздачи
Автор: Nickolas3434 | Размер: 1.09 ГБ | Добавлен: 26 ноя 2014
Раздают: 20    Качают: 4
Скачать торрент
Скачать торрент
Описание торрента

СообщениеДобавлено: 26 ноя 2014 

Страна: СССР
Производство: Госкино, Мосфильм, Союздетфильм

Жанр: короткометражка, военный
Год выпуска: 1941
Продолжительность: 01:27:05 (00:32:23+00:54:42)

Перевод: не требуется
Оригинальная аудиодорожка: русский
Cубтитры: нет

Режиссер: Евгений Некрасов, Иван Мутанов, Александр Оленин, Лев Арнштам , Евгений Червякова

В ролях:
Петр Репнин, Владимир Канцель, Михаил Трояновский, Виктор Бубнов, Наталья Петропавловская, М. Яндульский, А. Герр, Борис Чирков, Владимир Лукин, Д. Миловзоров, В. Крюгер, Зинаида Воркуль, У. Круг, Борис Блинов, Иван Кузнецов, Александр Мельников, Михаил Екатериненский, Татьяна Сукова...

Описание:
Первый из «Боевых киносборников» вышел через полтора месяца после начала Великой Отечественной войны 2 августа 1941 года…





Исходник: DVD5 R5
Тип релиза: DVDRip-AVC
Контейнер: MKV

Видео: 696->760x570 (4:3), 25 fps, H264 ~ 1602 kbps avg, 0.162 bit/pixel
Аудио: 48 kHz, Dolby AC3 2.0, 192 kbps

Раздача от:
Боевой киносборник № 1 (35 мин.)

Встреча с Максимом
На экране проходят последние кадры фильма "Выборгская сторона", заключительного фильма из знаменитой трилогии о Максиме. Фильм заканчивается, и его герой как бы сойдя с экрана, обращается к своим зрителям с патриотическим призывом идти на борьбу с фашистами.

Трое в воронке
Раненый красноармеец дополз до воронки, где медсестра смогла оказать ему первую помощь. Вскоре появляется раненый немец, и сестра милосердия оказывает помощь и ему. Однако фашист пытается застрелить девушку…

Сон в руку
Фильм в сатирической форме "предостерегает" Гитлера в его тревожном сне от неизбежного поражения на русской земле. Ему снятся Наполеон, немецкие оккупанты 1918 года — все те, кто испытал на собственной шкуре силу русского оружия.

Боевой киносборник №2 (55 мин.)

Встреча
Войска немецко-фашистских захватчиков оккупировали Польшу. Белорусского крестьянина, сберегшего чашку молока для больного ребенка, приговаривают к расстрелу. Герою удается бежать. 22 июня 1941 он вновь встречается, уже в открытом бою, лицом к лицу с офицером, когда-то поставившим его под дуло автомата...

Один из многих
Немецкий летчик, один из первых среди асов, во время бомбардировки одного из наших городов становится одним из многих, сбитых нашими зенитчиками.

У старой няни
Когда-то, еще до войны, молодая женщина была няней в немецкой семье. Став диверсантом, ее воспитанник, давно уехавший со своей семьей в Германию, теперь пытается найти убежище у старой няни. Женщина узнает гостя, и вместе с внуком "сдает" его красноармейцам. Последняя работа в кино Евгения Червякова.

Сто за одного
За убийство югославом-патриотом фашистского офицера гитлеровцы готовят к расстрелу сто заложников. С помощью лопат, выданных для рытья могил, приговоренные к смерти уничтожают немецкую охрану и уходят в горы к партизанам.

Случай на телеграфе
К окошечку телеграфа подходит... Наполеон. Девушка-кассир, нисколько не смутившись, подсчитывает стоимость телеграммы, адресованной Гитлеру: "Попробовал, не советую".

Общее
Полное имя : Boevoy.kinosbornik.№1-2.1941.DVDRip-AVC_[New-team]_by_AVP_Studio.mkv
Формат : Matroska
Версия формата : Version 2
Размер файла : 703 Мбайт
Продолжительность : 54 м.
Общий поток : 1796 Кбит/сек
Дата кодирования : UTC 2014-11-24 04:26:25
Программа кодирования : mkvmerge v6.1.0 ('Old Devil') built on Mar 4 2013 09:10:42
Библиотека кодирования : libebml v1.3.0 + libmatroska v1.4.0

Видео
Идентификатор : 1
Формат : AVC
Формат/Информация : Advanced Video Codec
Профиль формата : High@L4.1
Параметр CABAC формата : Да
Параметр ReFrames формата : 8 кадров
Идентификатор кодека : V_MPEG4/ISO/AVC
Продолжительность : 54 м.
Битрейт : 1602 Кбит/сек
Ширина : 696 пикселей
Высота : 570 пикселей
Соотношение сторон : 4:3
Режим частоты кадров : Постоянный
Частота кадров : 25,000 кадров/сек
Цветовое пространство : YUV
Субдискретизация насыщенности : 4:2:0
Битовая глубина : 8 бит
Тип развёртки : Прогрессивная
Бит/(Пиксели*Кадры) : 0.162
Размер потока : 614 Мбайт (87%)
Библиотека кодирования : x264 core 138 r2356 a1d3d17
Настройки программы : cabac=1 / ref=8 / deblock=1:-2:-1 / analyse=0x3:0x113 / me=umh / subme=10 / psy=1 / psy_rd=1.00:0.05 / mixed_ref=1 / me_range=32 / chroma_me=1 / trellis=2 / 8x8dct=1 / cqm=0 / deadzone=21,11 / fast_pskip=0 / chroma_qp_offset=-3 / threads=6 / lookahead_threads=1 / sliced_threads=0 / nr=0 / decimate=0 / interlaced=0 / bluray_compat=0 / constrained_intra=0 / bframes=8 / b_pyramid=2 / b_adapt=2 / b_bias=0 / direct=3 / weightb=1 / open_gop=0 / weightp=2 / keyint=250 / keyint_min=25 / scenecut=40 / intra_refresh=0 / rc=2pass / mbtree=0 / bitrate=1602 / ratetol=1.0 / qcomp=0.60 / qpmin=0 / qpmax=69 / qpstep=4 / cplxblur=20.0 / qblur=0.5 / ip_ratio=1.40 / pb_ratio=1.30 / aq=1:1.00
Default : Да
Forced : Нет

Аудио
Идентификатор : 2
Формат : AC-3
Формат/Информация : Audio Coding 3
Расширение режима : CM (complete main)
Параметр Endianness формата : Big
Идентификатор кодека : A_AC3
Продолжительность : 54 м.
Вид битрейта : Постоянный
Битрейт : 192 Кбит/сек
Каналы : 2 канала
Расположение каналов : Front: L R
Частота : 48,0 КГц
Битовая глубина : 16 бит
Метод сжатия : С потерями
Размер потока : 75,1 Мбайт (11%)
Default : Да
Forced : Нет





   Похожие торренты   Торрент   Размер 
В этой теме нет новых непрочитанных сообщений. Боевой киносборник № 3-4 (1941) DVDRip от New-Team

36 | 27

1.45 ГБ

В этой теме нет новых непрочитанных сообщений. Боевой киносборник № 3-4 (1941) DVDRip-AVC от New-Team

20 | 6

1.45 ГБ

В этой теме нет новых непрочитанных сообщений. Боевой киносборник № 5-6 (1941) DVDRip от New-Team

19 | 15

1.46 ГБ

В этой теме нет новых непрочитанных сообщений. Боевой киносборник № 1-2 (1941) DVDRip от New-Team

21 | 5

741.93 МБ

В этой теме нет новых непрочитанных сообщений. Боевой киносборник № 1-2 (1941) DVDRip от New-Team

322 | 9

1.09 ГБ

В этой теме нет новых непрочитанных сообщений. Боевой киносборник № 5-6 (1941) DVDRip от New-Team

14 | 8

743.96 МБ

В этой теме нет новых непрочитанных сообщений. Боевой киносборник № 5-6 (1941) DVDRip-AVC от New-Team

28 | 7

1.46 ГБ




Вы не можете начинать темы
Вы не можете отвечать на сообщения
Вы не можете редактировать свои сообщения
Вы не можете удалять свои сообщения
Вы не можете добавлять вложения

Перейти:  
Для Мосгорсуда, Роскомнадзора и рекламодателей: mosgorsud-torrent[собачка]yandex.ru
 Вход
ppkBB3cker v.2 © 2008-2014 @ PPK
[ Time : 0.034s | 15 Queries | GZIP : Off ]

Торрент трекер RUTOR.IN, Не можете зайти на rutor.org? Какой новый адрес рутор? Какое зеркало рутор? Не работает rutor.org и зеркала? Тогда наш торрент специально для вас. Rutor.in неофициальное зеркало rutor. В случае если у Вас заблокирован rutor или вдруг Вы не можете на него зайти, то Вы без труда сможете скачать бесплатно и без рекламы последние новинки кино, игр, сериалов и прочего у нас, на Rutor.in. Не нужно использовать прокси, чтобы зайти на рутор, достаточно воспользоваться нашим ресурсом. Все новые фильмы, игры, сериалы, книги и музыка за 2013 и 2014 годы через торрент бесплатно. Скачивайте фильмы в хорошем качестве, игры для пк, xbox, playstation без регистрации. У нас вы найдете новые Зарубежные сериалы и Русские сериалы 2013, 2014, 2015 годов. Оставайтесь с нами, качайте любимые фильмы, игры, сериалы, книги и музыку.