img image001 image001 image001 image001 image001 image001 image001 image001 image001 image001 image001 image001 image001 image001 image001

Planets Sun Sun Sun
Статистика раздачи
Автор: Nickolas3434 | Размер: 744.37 МБ | Добавлен: 26 ноя 2014
Раздают: 15    Качают: 9
Скачать торрент
Скачать торрент
Описание торрента

СообщениеДобавлено: 26 ноя 2014 

Страна: СССР
Производство: Госкино, Мосфильм, Союздетфильм

Жанр: короткометражка, военный
Год выпуска: 1941
Продолжительность: 01:43:56 (00:45:04+00:58:52)

Перевод: не требуется
Оригинальная аудиодорожка: русский
Cубтитры: нет

Режиссер: Евгений Некрасов, Иван Мутанов, Александр Оленин, Лев Арнштам , Евгений Червякова

В ролях:
Виктор Аркасов, Владимир Шишкин, В. Миронов, Николай Хрящиков, Елена Ануфриева, Петр Савин, Елизавета Кузюрина, Николай Трофимов, Борис Чирков, Александр Антонов, Любовь Орлова, Зоя Фёдорова, Павел Шпрингфельд, Андрей Файт, Владимир Уральский, Елена Максимова, Владимир Володин, Владимир Соловьев, Дмитрий Павлов, Владимир Чувелев...

Описание:
Первый из «Боевых киносборников» вышел через полтора месяца после начала Великой Отечественной войны 2 августа 1941 года…





Исходник: DVD5 R5
Тип релиза: DVDRip
Контейнер: AVI

Видео: 576x432 (4:3), 25 fps, XviD ~ 863 kbps avg, 0.139 bit/pixel
Аудио: 48 kHz, MP3 2.0, 128 kbps

Раздача от:
Боевой киносборник №3 (45 мин.)

ACK-ACK
Кинохроника союзников - англичан

Мужество
Великая Отечественная война. Сержант Шаров с группой добровольцев уходит в разведку, чтобы определить местонахождение вражеского дота. Обнаружив искусно замаскированный дот, смельчаки забрасывают его гранатами, и тем самым навлекают на себя вражескую пехоту и танки. Завязывается бой, и небольшой группе солдат, обреченной на истребление, приходит на помощь советская артиллерия...

Антоша Рыбкин
Перед атакой на село, захваченное фашистами, командир решает провести отвлекающий маневр — концерт фронтовой бригады артистов.
Повару Антоше Рыбкину поручено играть роль… немецкого ефрейтора. Облаченный во вражеский мундир, он попадает в тыл к противнику и помогает своим освободить село.

Боевой киносборник №4 (59 мин.)
В качестве ведущей этого киноальманаха выступала почтальонша Стрелка из комедии "Волга-Волга", она же "суперстар" советского экрана актриса Любовь Орлова. Колеся на своем стареньком велосипеде, который так полюбился зрителю вместе с его хозяйкой, по приволжскому бездорожью, Стрелка теперь развозит колхозникам письма от фронтовиков, то есть действует в новых условиях войны...

Британский флот
Документальная хроника об английском флоте.

Патриотка
Великая Отечественная война. Один из наших броневиков, получив пробоину в бензобаке, выходит из строя. Стрелок экипажа отправляется в ближайший населенный пункт за горючим. По пути герой встречает молодую трактористку. Девушка сообщает о том, что немцы сбросили воздушный десант и сгоняют все население на строительство взлетно-посадочной площадки. Она берется сама принести бензин. Обманув немецких солдат, буквально из-под носа врага девушка ловко выносит два ведра бензина, и, заняв место раненого водителя, уверенно ведет боевую машину на фашистов. Увидев неожиданное подкрепление, жители поселка нападают на фашистских парашютистов и быстро расправляются с врагом.

Приказ выполнен
О подвиге красноармейца Бакова, доставившего в часть тягач с боеприпасами.

Общее
Полное имя : Boevoy.kinosbornik.№3-4.1941.DVDRip-745_[New-team]_by_AVP_Studio.avi
Формат : AVI
Формат/Информация : Audio Video Interleave
Размер файла : 323 Мбайт
Продолжительность : 45 м.
Общий поток : 1001 Кбит/сек
Программа кодирования : VirtualDubModRus 1.5.10.2 (build 2542/release)
Библиотека кодирования : VirtualDubMod build 2542/release

Видео
Идентификатор : 0
Формат : MPEG-4 Visual
Профиль формата : Advanced Simple@L5
Параметр BVOP формата : 1
Параметр QPel формата : Нет
Параметр GMC формата : Без точки перехода
Параметр матрицы формата : Выборочная
Идентификатор кодека : XVID
Идентификатор кодека/Подсказка : XviD
Продолжительность : 45 м.
Битрейт : 863 Кбит/сек
Ширина : 576 пикселей
Высота : 432 пикселя
Соотношение сторон : 4:3
Частота кадров : 25,000 кадров/сек
Цветовое пространство : YUV
Субдискретизация насыщенности : 4:2:0
Битовая глубина : 8 бит
Тип развёртки : Прогрессивная
Метод сжатия : С потерями
Бит/(Пиксели*Кадры) : 0.139
Размер потока : 278 Мбайт (86%)
Библиотека кодирования : XviD 73

Аудио
Идентификатор : 1
Формат : MPEG Audio
Версия формата : Version 1
Профиль формата : Layer 3
Идентификатор кодека : 55
Идентификатор кодека/Подсказка : MP3
Продолжительность : 45 м.
Вид битрейта : Постоянный
Битрейт : 128 Кбит/сек
Каналы : 2 канала
Частота : 48,0 КГц
Метод сжатия : С потерями
Размер потока : 41,3 Мбайт (13%)
Выравнивание : Соединение по промежуткам
Продолжительность промежутка : 40 мс. (1,00 видеокадр)
Время предзагрузки промежутка : 504 мс.
Библиотека кодирования : LAME3.99r
Настройки программы : -m s -V 4 -q 2 -lowpass 17 -b 128





   Похожие торренты   Торрент   Размер 
В этой теме нет новых непрочитанных сообщений. Боевой киносборник № 3-4 (1941) DVDRip-AVC от New-Team

20 | 6

1.45 ГБ

В этой теме нет новых непрочитанных сообщений. Боевой киносборник № 5-6 (1941) DVDRip от New-Team

14 | 8

743.96 МБ

В этой теме нет новых непрочитанных сообщений. Боевой киносборник № 5-6 (1941) DVDRip от New-Team

19 | 15

1.46 ГБ

В этой теме нет новых непрочитанных сообщений. Боевой киносборник № 5-6 (1941) DVDRip-AVC от New-Team

28 | 7

1.46 ГБ

В этой теме нет новых непрочитанных сообщений. Боевой киносборник № 3-4 (1941) DVDRip от New-Team

36 | 27

1.45 ГБ

В этой теме нет новых непрочитанных сообщений. Боевой киносборник № 1-2 (1941) DVDRip-AVC от New-Team

20 | 4

1.09 ГБ

В этой теме нет новых непрочитанных сообщений. Боевой киносборник № 1-2 (1941) DVDRip от New-Team

21 | 5

741.93 МБ




Вы не можете начинать темы
Вы не можете отвечать на сообщения
Вы не можете редактировать свои сообщения
Вы не можете удалять свои сообщения
Вы не можете добавлять вложения

Перейти:  
Для Мосгорсуда, Роскомнадзора и рекламодателей: mosgorsud-torrent[собачка]yandex.ru
 Вход
ppkBB3cker v.2 © 2008-2014 @ PPK
[ Time : 0.043s | 16 Queries | GZIP : Off ]

Торрент трекер RUTOR.IN, Не можете зайти на rutor.org? Какой новый адрес рутор? Какое зеркало рутор? Не работает rutor.org и зеркала? Тогда наш торрент специально для вас. Rutor.in неофициальное зеркало rutor. В случае если у Вас заблокирован rutor или вдруг Вы не можете на него зайти, то Вы без труда сможете скачать бесплатно и без рекламы последние новинки кино, игр, сериалов и прочего у нас, на Rutor.in. Не нужно использовать прокси, чтобы зайти на рутор, достаточно воспользоваться нашим ресурсом. Все новые фильмы, игры, сериалы, книги и музыка за 2013 и 2014 годы через торрент бесплатно. Скачивайте фильмы в хорошем качестве, игры для пк, xbox, playstation без регистрации. У нас вы найдете новые Зарубежные сериалы и Русские сериалы 2013, 2014, 2015 годов. Оставайтесь с нами, качайте любимые фильмы, игры, сериалы, книги и музыку.