img image001 image001 image001 image001 image001 image001 image001 image001 image001 image001 image001 image001 image001 image001 image001

Planets Sun Sun Sun
Статистика раздачи
Автор: Nickolas3434 | Размер: 1.45 ГБ | Добавлен: 26 ноя 2014
Раздают: 20    Качают: 6
Скачать торрент
Скачать торрент
Описание торрента

СообщениеДобавлено: 26 ноя 2014 

Страна: СССР
Производство: Госкино, Мосфильм, Союздетфильм

Жанр: короткометражка, военный
Год выпуска: 1941
Продолжительность: 01:43:56 (00:45:04+00:58:52)

Перевод: не требуется
Оригинальная аудиодорожка: русский
Cубтитры: нет

Режиссер: Евгений Некрасов, Иван Мутанов, Александр Оленин, Лев Арнштам , Евгений Червякова

В ролях:
Виктор Аркасов, Владимир Шишкин, В. Миронов, Николай Хрящиков, Елена Ануфриева, Петр Савин, Елизавета Кузюрина, Николай Трофимов, Борис Чирков, Александр Антонов, Любовь Орлова, Зоя Фёдорова, Павел Шпрингфельд, Андрей Файт, Владимир Уральский, Елена Максимова, Владимир Володин, Владимир Соловьев, Дмитрий Павлов, Владимир Чувелев...

Описание:
Первый из «Боевых киносборников» вышел через полтора месяца после начала Великой Отечественной войны 2 августа 1941 года…





Исходник: DVD5 R5
Тип релиза: DVDRip-AVC
Контейнер: MKV

Видео: 704->760x570 (4:3), 25 fps, H264 ~ 1811 kbps avg, 0.181 bit/pixel
Аудио: 48 kHz, Dolby AC3 2.0, 192 kbps

Раздача от:
Боевой киносборник №3 (45 мин.)

ACK-ACK
Кинохроника союзников - англичан

Мужество
Великая Отечественная война. Сержант Шаров с группой добровольцев уходит в разведку, чтобы определить местонахождение вражеского дота. Обнаружив искусно замаскированный дот, смельчаки забрасывают его гранатами, и тем самым навлекают на себя вражескую пехоту и танки. Завязывается бой, и небольшой группе солдат, обреченной на истребление, приходит на помощь советская артиллерия...

Антоша Рыбкин
Перед атакой на село, захваченное фашистами, командир решает провести отвлекающий маневр — концерт фронтовой бригады артистов.
Повару Антоше Рыбкину поручено играть роль… немецкого ефрейтора. Облаченный во вражеский мундир, он попадает в тыл к противнику и помогает своим освободить село.

Боевой киносборник №4 (59 мин.)
В качестве ведущей этого киноальманаха выступала почтальонша Стрелка из комедии "Волга-Волга", она же "суперстар" советского экрана актриса Любовь Орлова. Колеся на своем стареньком велосипеде, который так полюбился зрителю вместе с его хозяйкой, по приволжскому бездорожью, Стрелка теперь развозит колхозникам письма от фронтовиков, то есть действует в новых условиях войны...

Британский флот
Документальная хроника об английском флоте.

Патриотка
Великая Отечественная война. Один из наших броневиков, получив пробоину в бензобаке, выходит из строя. Стрелок экипажа отправляется в ближайший населенный пункт за горючим. По пути герой встречает молодую трактористку. Девушка сообщает о том, что немцы сбросили воздушный десант и сгоняют все население на строительство взлетно-посадочной площадки. Она берется сама принести бензин. Обманув немецких солдат, буквально из-под носа врага девушка ловко выносит два ведра бензина, и, заняв место раненого водителя, уверенно ведет боевую машину на фашистов. Увидев неожиданное подкрепление, жители поселка нападают на фашистских парашютистов и быстро расправляются с врагом.

Приказ выполнен
О подвиге красноармейца Бакова, доставившего в часть тягач с боеприпасами.

Общее
Полное имя : Boevoy.kinosbornik.№3-4.1941.DVDRip-AVC_[New-team]_by_AVP_Studio.mkv
Формат : Matroska
Версия формата : Version 2
Размер файла : 646 Мбайт
Продолжительность : 45 м.
Общий поток : 2004 Кбит/сек
Дата кодирования : UTC 2014-11-24 12:46:32
Программа кодирования : mkvmerge v6.1.0 ('Old Devil') built on Mar 4 2013 09:10:42
Библиотека кодирования : libebml v1.3.0 + libmatroska v1.4.0

Видео
Идентификатор : 1
Формат : AVC
Формат/Информация : Advanced Video Codec
Профиль формата : High@L4.1
Параметр CABAC формата : Да
Параметр ReFrames формата : 8 кадров
Идентификатор кодека : V_MPEG4/ISO/AVC
Продолжительность : 45 м.
Битрейт : 1811 Кбит/сек
Ширина : 704 пикселя
Высота : 570 пикселей
Соотношение сторон : 4:3
Режим частоты кадров : Постоянный
Частота кадров : 25,000 кадров/сек
Цветовое пространство : YUV
Субдискретизация насыщенности : 4:2:0
Битовая глубина : 8 бит
Тип развёртки : Прогрессивная
Бит/(Пиксели*Кадры) : 0.181
Размер потока : 571 Мбайт (88%)
Библиотека кодирования : x264 core 138 r2356 a1d3d17
Настройки программы : cabac=1 / ref=8 / deblock=1:-2:-1 / analyse=0x3:0x113 / me=umh / subme=10 / psy=1 / psy_rd=1.00:0.05 / mixed_ref=1 / me_range=32 / chroma_me=1 / trellis=2 / 8x8dct=1 / cqm=0 / deadzone=21,11 / fast_pskip=0 / chroma_qp_offset=-3 / threads=6 / lookahead_threads=1 / sliced_threads=0 / nr=0 / decimate=0 / interlaced=0 / bluray_compat=0 / constrained_intra=0 / bframes=8 / b_pyramid=2 / b_adapt=2 / b_bias=0 / direct=3 / weightb=1 / open_gop=0 / weightp=2 / keyint=250 / keyint_min=25 / scenecut=40 / intra_refresh=0 / rc=2pass / mbtree=0 / bitrate=1811 / ratetol=1.0 / qcomp=0.60 / qpmin=0 / qpmax=69 / qpstep=4 / cplxblur=20.0 / qblur=0.5 / ip_ratio=1.40 / pb_ratio=1.30 / aq=1:1.00
Default : Да
Forced : Нет

Аудио
Идентификатор : 2
Формат : AC-3
Формат/Информация : Audio Coding 3
Расширение режима : CM (complete main)
Параметр Endianness формата : Big
Идентификатор кодека : A_AC3
Продолжительность : 45 м.
Вид битрейта : Постоянный
Битрейт : 192 Кбит/сек
Каналы : 2 канала
Расположение каналов : Front: L R
Частота : 48,0 КГц
Битовая глубина : 16 бит
Метод сжатия : С потерями
Размер потока : 61,9 Мбайт (10%)
Default : Да
Forced : Нет





   Похожие торренты   Торрент   Размер 
В этой теме нет новых непрочитанных сообщений. Боевой киносборник № 5-6 (1941) DVDRip от New-Team

19 | 15

1.46 ГБ

В этой теме нет новых непрочитанных сообщений. Боевой киносборник № 5-6 (1941) DVDRip-AVC от New-Team

28 | 7

1.46 ГБ

В этой теме нет новых непрочитанных сообщений. Боевой киносборник № 1-2 (1941) DVDRip от New-Team

322 | 9

1.09 ГБ

В этой теме нет новых непрочитанных сообщений. Боевой киносборник № 5-6 (1941) DVDRip от New-Team

14 | 8

743.96 МБ

В этой теме нет новых непрочитанных сообщений. Боевой киносборник № 1-2 (1941) DVDRip от New-Team

21 | 5

741.93 МБ

В этой теме нет новых непрочитанных сообщений. Боевой киносборник № 3-4 (1941) DVDRip от New-Team

15 | 9

744.37 МБ

В этой теме нет новых непрочитанных сообщений. Боевой киносборник № 1-2 (1941) DVDRip-AVC от New-Team

20 | 4

1.09 ГБ




Вы не можете начинать темы
Вы не можете отвечать на сообщения
Вы не можете редактировать свои сообщения
Вы не можете удалять свои сообщения
Вы не можете добавлять вложения

Перейти:  
Для Мосгорсуда, Роскомнадзора и рекламодателей: mosgorsud-torrent[собачка]yandex.ru
 Вход
ppkBB3cker v.2 © 2008-2014 @ PPK
[ Time : 5.662s | 15 Queries | GZIP : Off ]

Торрент трекер RUTOR.IN, Не можете зайти на rutor.org? Какой новый адрес рутор? Какое зеркало рутор? Не работает rutor.org и зеркала? Тогда наш торрент специально для вас. Rutor.in неофициальное зеркало rutor. В случае если у Вас заблокирован rutor или вдруг Вы не можете на него зайти, то Вы без труда сможете скачать бесплатно и без рекламы последние новинки кино, игр, сериалов и прочего у нас, на Rutor.in. Не нужно использовать прокси, чтобы зайти на рутор, достаточно воспользоваться нашим ресурсом. Все новые фильмы, игры, сериалы, книги и музыка за 2013 и 2014 годы через торрент бесплатно. Скачивайте фильмы в хорошем качестве, игры для пк, xbox, playstation без регистрации. У нас вы найдете новые Зарубежные сериалы и Русские сериалы 2013, 2014, 2015 годов. Оставайтесь с нами, качайте любимые фильмы, игры, сериалы, книги и музыку.