img image001 image001 image001 image001 image001 image001 image001 image001 image001 image001 image001 image001 image001 image001 image001 image001

Planets Sun Sun Sun
Статистика раздачи
Автор: Nickolas3434 | Размер: 1.64 ГБ | Добавлен: 26 ноя 2014
Раздают: 76    Качают: 19
Скачать торрент
Скачать торрент
Описание торрента

СообщениеДобавлено: 26 ноя 2014 

Информация о фильме
Оригинальное название: Прозрение
Год выхода: 2013
Жанр: Драма, комедия
Режиссер: Александр Мелентьев
В ролях: Светлана Иванова, Павел Михайлов, Александр Безруков, Наталья Вишня, Станислав Демин, Екатерина Порубель, Александр Рублёв, Альберт Афонин

О фильме:
Она — слепая от рождения, Он — в результате несчастного случая. Они молоды, влюблены и мечтают пожениться, чтобы навсегда остаться друг с другом. В один прекрасный день, они тайком сбегают из дома слепых в ЗАГС и Он собирается заснять их свадьбу на видеокамеру. Правда, дорога оказывается слишком путаной, а кино — очень смешным и странным…


Страна: Россия
Студия: Юнифорс
Продолжительность: 01:24:22

Файл
Качество: DVB
Видео: MPEG-2, 2455 Кбит/с, 720x576@1024x576
Звук: Русский (MP2, 2 ch, 192 Кбит/с)

Семпл


Общее
Идентификатор : 16 (0x10)
Полное имя : Prozrenie.2013.DVB.MediaClub.ts
Формат : MPEG-TS
Размер файла : 1,64 Гбайт
Продолжительность : 1 ч. 24 м.
Режим общего битрейта : Переменный
Общий поток : 2786 Кбит/сек

Видео
Идентификатор : 333 (0x14D)
Идентификатор меню : 16113 (0x3EF1)
Формат : MPEG Video
Версия формата : Version 2
Профиль формата : Main@Main
Параметр BVOP формата : Да
Параметр матрицы формата : Выборочная
Параметр GOP формата : M=3, N=36
Идентификатор кодека : 2
Продолжительность : 1 ч. 24 м.
Вид битрейта : Переменный
Битрейт : 2455 Кбит/сек
Максимальный битрейт : 15,0 Мбит/сек
Ширина : 720 пикселей
Высота : 576 пикселей
Соотношение сторон : 16:9
Частота кадров : 25,000 кадров/сек
Стандарт вещания : PAL
Цветовое пространство : YUV
Субдискретизация насыщенности : 4:2:0
Битовая глубина : 8 бит
Тип развёртки : Чересстрочная
Порядок развёртки : Верхнее поле первое
Метод сжатия : С потерями
Бит/(Пиксели*Кадры) : 0.237
Размер потока : 1,45 Гбайт (88%)

Аудио
Идентификатор : 413 (0x19D)
Идентификатор меню : 16113 (0x3EF1)
Формат : MPEG Audio
Версия формата : Version 1
Профиль формата : Layer 2
Идентификатор кодека : 4
Продолжительность : 1 ч. 24 м.
Вид битрейта : Постоянный
Битрейт : 192 Кбит/сек
Каналы : 2 канала
Частота : 48,0 КГц
Метод сжатия : С потерями
Задержка видео : -698 мс.
Размер потока : 116 Мбайт (7%)
Язык : Russian
Язык, дополнительно : Clean effects

Меню
Идентификатор : 1613 (0x64D)
Идентификатор меню : 16113 (0x3EF1)
Продолжительность : 1 ч. 24 м.
Список : 333 (0x14D) (MPEG Video) / 413 (0x19D) (MPEG Audio, Russian)
Язык : / Russian


Релиз от:



   Похожие торренты   Торрент   Размер 
В этой теме нет новых непрочитанных сообщений. Прозрение (2014) SATRip

296 | 30

1.37 ГБ

В этой теме нет новых непрочитанных сообщений. Прозрение / Los ojos de Julia (2010) HDRip от Scarabey | P

295 | 28

1.45 ГБ

В этой теме нет новых непрочитанных сообщений. Прозрение / Julia's eyes / Los ojos de Julia (2010) BDRip-AVC от HELLYWOOD | Лицензия

316 | 10

2.18 ГБ

В этой теме нет новых непрочитанных сообщений. Полицейская история 2013 / Police story / Jing cha gu shi 2013 (2013) BDRip-AVC от MediaClub | L2, A

126 | 12

3.16 ГБ

В этой теме нет новых непрочитанных сообщений. Полицейская история 2013 / Police story / Jing cha gu shi 2013 (2013) BDRip-AVC от MediaClub | L2

227 | 102

2.47 ГБ

В этой теме нет новых непрочитанных сообщений. КВН-2013. Высшая лига. Первый полуфинал [эфир 20.10] (2013) HDTVRip от MediaClub

75 | 3

1.61 ГБ

В этой теме нет новых непрочитанных сообщений. КВН-2013. Высшая лига. Второй полуфинал [эфир 27.10] (2013) HDTVRip от MediaClub

28 | 2

1.63 ГБ




Вы не можете начинать темы
Вы не можете отвечать на сообщения
Вы не можете редактировать свои сообщения
Вы не можете удалять свои сообщения
Вы не можете добавлять вложения

Перейти:  
 Вход
ppkBB3cker v.2 © 2008-2014 @ PPK
[ Time : 0.022s | 16 Queries | GZIP : Off ]

cron