img image001 image001 image001 image001 image001 image001 image001 image001 image001 image001 image001 image001 image001 image001 image001

Planets Sun Sun Sun
Статистика раздачи
Автор: Nickolas3434 | Размер: 1.46 ГБ | Добавлен: 26 ноя 2014
Раздают: 19    Качают: 15
Скачать торрент
Скачать торрент
Описание торрента

СообщениеДобавлено: 26 ноя 2014 

Страна: СССР
Производство: Госкино, Мосфильм, Союздетфильм

Жанр: короткометражка, военный
Год выпуска: 1941
Продолжительность: 01:52:44 (00:51:59+01:00:45)

Перевод: не требуется
Оригинальная аудиодорожка: русский
Cубтитры: нет

Режиссер: Михаил Слуцкий, Михаил Доллер, Всеволод Пудовкин, Владимир Вайншток

В ролях:
Любовь Орлова, Виктор Аркасов, Владимир Шишкин, В. Миронов, Николай Хрящиков, Елена Ануфриева, Петр Савин, Анастасия Зуева, Павел Герага, Александр Румнев, Елизавета Кузюрина, Владимир Уральский, Александра Данилова...

Описание:
Первый из «Боевых киносборников» вышел через полтора месяца после начала Великой Отечественной войны 2 августа 1941 года…





Исходник: DVD5 R5
Тип релиза: DVDRip
Контейнер: AVI

Видео: 688x512 (4:3), 25 fps, XviD ~ 1646 kbps avg, 0.187 bit/pixel
Аудио: 48 kHz, Dolby AC3 2.0, 192 kbps

Раздача от:
Боевой киносборник № 5 (52 мин.)

Лондон не сдастся!
Хроника союзников-англичан, которых фашистские "воздушные пираты" пытаются закидывать бомбами, но, благодаря мудрому руководству британских военных, все попытки нацистских упырей терпят позорный крах. Прямолинейный юмор в духе "забил снаряд я в пушку туго".

Наша Москва
Бандиты (немцев в фильмах именуют не иначе, как убийцами и бандитами, крадущимися под покровом ночи) наседают, но столица спокойна: работают рестораны, магазины и молокозавод. Камера вскользь упоминает Любовь Орлову, интеллигентно пьющую кофе за столиком кафе. Зенитки цепко смотрят в небо. По периметру города в засадах сидят истребители. Левитан внушительно сообщает, что москвичам нечего бояться…

Песня "Священная война" (Александр Александров – Василий Лебедев-Кумач)
Звучит на фоне документальных кадров, снабжена субтитрами

Боевой киносборник № 6 (60 мин.)

Женщины воздушного флота
Английский фильм, где союзники превозносят своих смелых леди, служащих в наземных частях ВВС Её Величества: радистками и поварихами, вместе со своими мужьями, теми, что в небе, кующими, так сказать, победу. Несмотря на то, что на дворе лишь 41-й, и до победы ещё катастрофически далеко.

Ненависть
Советский офицер, захвативший в плен сбитого "фашистского людоеда", немецкого летчика-истребителя, только что обстрелявшего мирное село, встречает в лесу старика, внук которого попал под людоедские пули. Глядя в полные ненависти глаза деда, фашист испытывает огромные угрызения совести и обещает выдать всю секретную информацию, какая только ему известна.

Пир в Жирмунке
Одно из лучших произведений кинодраматургии. В основе этой новеллы лежит подлинный факт, почерпнутый из материалов Совинформбюро.
Старая женщина Прасковья остается в деревне оккупированной немцами с тем, чтобы отомстить им за все злодеяния. Для этого она придумала такой план: усыпить подозрения фашистов (когда они придут к ней за продуктами) и угостить как можно больше захватчиков отравленной пищей. Чтобы у врагов не осталось никаких сомнений в ее искренности, она вместе с ним ест отравленную пищу и вместе с ними гибнет.

"Песнь о русском воине", позже известная под названием "Воевать мы мастера" (Тихон Хренников – Василий Лебедев-Кумач)
Экранизация боевой песни о славе русского оружия иллюстрируется отдельными кадрами из исторических фильмов "Александр Невский", "Петр I", "Суворов", а также хроникой военных действий.
В титрах значится: "Исполняет Николай Крючков", но на самом деле он поёт в кадре под фонограмму Владимира Захарова

Общее
Полное имя : Boevoy.kinosbornik.№5-6.1941.DVDRip_[New-team]_by_AVP_Studio.avi
Формат : AVI
Формат/Информация : Audio Video Interleave
Размер файла : 687 Мбайт
Продолжительность : 51 м.
Общий поток : 1847 Кбит/сек
Программа кодирования : VirtualDubModRus 1.5.10.2 (build 2542/release)
Библиотека кодирования : VirtualDubMod build 2542/release

Видео
Идентификатор : 0
Формат : MPEG-4 Visual
Профиль формата : Advanced Simple@L5
Параметр BVOP формата : 1
Параметр QPel формата : Нет
Параметр GMC формата : Без точки перехода
Параметр матрицы формата : Выборочная
Идентификатор кодека : XVID
Идентификатор кодека/Подсказка : XviD
Продолжительность : 51 м.
Битрейт : 1646 Кбит/сек
Ширина : 688 пикселей
Высота : 512 пикселей
Соотношение сторон : 4:3
Частота кадров : 25,000 кадров/сек
Цветовое пространство : YUV
Субдискретизация насыщенности : 4:2:0
Битовая глубина : 8 бит
Тип развёртки : Прогрессивная
Метод сжатия : С потерями
Бит/(Пиксели*Кадры) : 0.187
Размер потока : 612 Мбайт (89%)
Библиотека кодирования : XviD 73

Аудио
Идентификатор : 1
Формат : AC-3
Формат/Информация : Audio Coding 3
Расширение режима : CM (complete main)
Параметр Endianness формата : Big
Идентификатор кодека : 2000
Продолжительность : 51 м.
Вид битрейта : Постоянный
Битрейт : 192 Кбит/сек
Каналы : 2 канала
Расположение каналов : Front: L R
Частота : 48,0 КГц
Битовая глубина : 16 бит
Метод сжатия : С потерями
Размер потока : 71,4 Мбайт (10%)
Выравнивание : Разделение по промежуткам
Продолжительность промежутка : 40 мс. (1,00 видеокадр)
Время предзагрузки промежутка : 500 мс





   Похожие торренты   Торрент   Размер 
В этой теме нет новых непрочитанных сообщений. Боевой киносборник № 3-4 (1941) DVDRip от New-Team

36 | 27

1.45 ГБ

В этой теме нет новых непрочитанных сообщений. Боевой киносборник № 3-4 (1941) DVDRip-AVC от New-Team

20 | 6

1.45 ГБ

В этой теме нет новых непрочитанных сообщений. Боевой киносборник № 1-2 (1941) DVDRip-AVC от New-Team

20 | 4

1.09 ГБ

В этой теме нет новых непрочитанных сообщений. Боевой киносборник № 1-2 (1941) DVDRip от New-Team

21 | 5

741.93 МБ

В этой теме нет новых непрочитанных сообщений. Боевой киносборник № 1-2 (1941) DVDRip от New-Team

322 | 9

1.09 ГБ

В этой теме нет новых непрочитанных сообщений. Боевой киносборник № 5-6 (1941) DVDRip от New-Team

14 | 8

743.96 МБ

В этой теме нет новых непрочитанных сообщений. Боевой киносборник № 5-6 (1941) DVDRip-AVC от New-Team

28 | 7

1.46 ГБ




Вы не можете начинать темы
Вы не можете отвечать на сообщения
Вы не можете редактировать свои сообщения
Вы не можете удалять свои сообщения
Вы не можете добавлять вложения

Перейти:  
Для Мосгорсуда, Роскомнадзора и рекламодателей: mosgorsud-torrent[собачка]yandex.ru
 Вход
ppkBB3cker v.2 © 2008-2014 @ PPK
[ Time : 0.591s | 15 Queries | GZIP : On ]

Торрент трекер RUTOR.IN, Не можете зайти на rutor.org? Какой новый адрес рутор? Какое зеркало рутор? Не работает rutor.org и зеркала? Тогда наш торрент специально для вас. Rutor.in неофициальное зеркало rutor. В случае если у Вас заблокирован rutor или вдруг Вы не можете на него зайти, то Вы без труда сможете скачать бесплатно и без рекламы последние новинки кино, игр, сериалов и прочего у нас, на Rutor.in. Не нужно использовать прокси, чтобы зайти на рутор, достаточно воспользоваться нашим ресурсом. Все новые фильмы, игры, сериалы, книги и музыка за 2013 и 2014 годы через торрент бесплатно. Скачивайте фильмы в хорошем качестве, игры для пк, xbox, playstation без регистрации. У нас вы найдете новые Зарубежные сериалы и Русские сериалы 2013, 2014, 2015 годов. Оставайтесь с нами, качайте любимые фильмы, игры, сериалы, книги и музыку.