img image001 image001 image001 image001 image001 image001 image001 image001 image001 image001 image001 image001 image001 image001 image001

Planets Sun Sun Sun
Статистика раздачи
Автор: Nickolas3434 | Размер: 1.46 ГБ | Добавлен: 26 ноя 2014
Раздают: 28    Качают: 7
Скачать торрент
Скачать торрент
Описание торрента

СообщениеДобавлено: 26 ноя 2014 

Страна: СССР
Производство: Госкино, Мосфильм, Союздетфильм

Жанр: короткометражка, военный
Год выпуска: 1941
Продолжительность: 01:52:44 (00:51:59+01:00:45)

Перевод: не требуется
Оригинальная аудиодорожка: русский
Cубтитры: нет

Режиссер: Михаил Слуцкий, Михаил Доллер, Всеволод Пудовкин, Владимир Вайншток

В ролях:
Любовь Орлова, Виктор Аркасов, Владимир Шишкин, В. Миронов, Николай Хрящиков, Елена Ануфриева, Петр Савин, Анастасия Зуева, Павел Герага, Александр Румнев, Елизавета Кузюрина, Владимир Уральский, Александра Данилова...

Описание:
Первый из «Боевых киносборников» вышел через полтора месяца после начала Великой Отечественной войны 2 августа 1941 года…





Исходник: DVD5 R5
Тип релиза: DVDRip-AVC
Контейнер: MKV

Видео: 696->752x566 (4:3), 25 fps, H264 ~ 1655 kbps avg, 0.168 bit/pixel
Аудио: 48 kHz, Dolby AC3 2.0, 192 kbps

Раздача от:
Боевой киносборник № 5 (52 мин.)

Лондон не сдастся!
Хроника союзников-англичан, которых фашистские "воздушные пираты" пытаются закидывать бомбами, но, благодаря мудрому руководству британских военных, все попытки нацистских упырей терпят позорный крах. Прямолинейный юмор в духе "забил снаряд я в пушку туго".

Наша Москва
Бандиты (немцев в фильмах именуют не иначе, как убийцами и бандитами, крадущимися под покровом ночи) наседают, но столица спокойна: работают рестораны, магазины и молокозавод. Камера вскользь упоминает Любовь Орлову, интеллигентно пьющую кофе за столиком кафе. Зенитки цепко смотрят в небо. По периметру города в засадах сидят истребители. Левитан внушительно сообщает, что москвичам нечего бояться…

Песня "Священная война" (Александр Александров – Василий Лебедев-Кумач)
Звучит на фоне документальных кадров, снабжена субтитрами

Боевой киносборник № 6 (60 мин.)

Женщины воздушного флота
Английский фильм, где союзники превозносят своих смелых леди, служащих в наземных частях ВВС Её Величества: радистками и поварихами, вместе со своими мужьями, теми, что в небе, кующими, так сказать, победу. Несмотря на то, что на дворе лишь 41-й, и до победы ещё катастрофически далеко.

Ненависть
Советский офицер, захвативший в плен сбитого "фашистского людоеда", немецкого летчика-истребителя, только что обстрелявшего мирное село, встречает в лесу старика, внук которого попал под людоедские пули. Глядя в полные ненависти глаза деда, фашист испытывает огромные угрызения совести и обещает выдать всю секретную информацию, какая только ему известна.

Пир в Жирмунке
Одно из лучших произведений кинодраматургии. В основе этой новеллы лежит подлинный факт, почерпнутый из материалов Совинформбюро.
Старая женщина Прасковья остается в деревне оккупированной немцами с тем, чтобы отомстить им за все злодеяния. Для этого она придумала такой план: усыпить подозрения фашистов (когда они придут к ней за продуктами) и угостить как можно больше захватчиков отравленной пищей. Чтобы у врагов не осталось никаких сомнений в ее искренности, она вместе с ним ест отравленную пищу и вместе с ними гибнет.

"Песнь о русском воине", позже известная под названием "Воевать мы мастера" (Тихон Хренников – Василий Лебедев-Кумач)
Экранизация боевой песни о славе русского оружия иллюстрируется отдельными кадрами из исторических фильмов "Александр Невский", "Петр I", "Суворов", а также хроникой военных действий.
В титрах значится: "Исполняет Николай Крючков", но на самом деле он поёт в кадре под фонограмму Владимира Захарова

Общее
Полное имя : Boevoy.kinosbornik.№5-6.1941.DVDRip-AVC_[New-team]_by_AVP_Studio.mkv
Формат : Matroska
Версия формата : Version 2
Размер файла : 803 Мбайт
Продолжительность : 1 ч. 0 м.
Общий поток : 1849 Кбит/сек
Дата кодирования : UTC 2014-11-24 19:56:51
Программа кодирования : mkvmerge v6.1.0 ('Old Devil') built on Mar 4 2013 09:10:42
Библиотека кодирования : libebml v1.3.0 + libmatroska v1.4.0

Видео
Идентификатор : 1
Формат : AVC
Формат/Информация : Advanced Video Codec
Профиль формата : High@L4.1
Параметр CABAC формата : Да
Параметр ReFrames формата : 8 кадров
Идентификатор кодека : V_MPEG4/ISO/AVC
Продолжительность : 1 ч. 0 м.
Битрейт : 1655 Кбит/сек
Ширина : 696 пикселей
Высота : 566 пикселей
Соотношение сторон : 4:3
Соотношение сторон в оригинале : 4:3
Режим частоты кадров : Постоянный
Частота кадров : 25,000 кадров/сек
Цветовое пространство : YUV
Субдискретизация насыщенности : 4:2:0
Битовая глубина : 8 бит
Тип развёртки : Прогрессивная
Бит/(Пиксели*Кадры) : 0.168
Размер потока : 704 Мбайт (88%)
Библиотека кодирования : x264 core 138 r2356 a1d3d17
Настройки программы : cabac=1 / ref=8 / deblock=1:-2:-1 / analyse=0x3:0x113 / me=umh / subme=10 / psy=1 / psy_rd=1.00:0.05 / mixed_ref=1 / me_range=32 / chroma_me=1 / trellis=2 / 8x8dct=1 / cqm=0 / deadzone=21,11 / fast_pskip=0 / chroma_qp_offset=-3 / threads=6 / lookahead_threads=1 / sliced_threads=0 / nr=0 / decimate=0 / interlaced=0 / bluray_compat=0 / constrained_intra=0 / bframes=8 / b_pyramid=2 / b_adapt=2 / b_bias=0 / direct=3 / weightb=1 / open_gop=0 / weightp=2 / keyint=250 / keyint_min=25 / scenecut=40 / intra_refresh=0 / rc=2pass / mbtree=0 / bitrate=1655 / ratetol=1.0 / qcomp=0.60 / qpmin=0 / qpmax=69 / qpstep=4 / cplxblur=20.0 / qblur=0.5 / ip_ratio=1.40 / pb_ratio=1.30 / aq=1:1.00
Default : Да
Forced : Нет

Аудио
Идентификатор : 2
Формат : AC-3
Формат/Информация : Audio Coding 3
Расширение режима : CM (complete main)
Параметр Endianness формата : Big
Идентификатор кодека : A_AC3
Продолжительность : 1 ч. 0 м.
Вид битрейта : Постоянный
Битрейт : 192 Кбит/сек
Каналы : 2 канала
Расположение каналов : Front: L R
Частота : 48,0 КГц
Битовая глубина : 16 бит
Метод сжатия : С потерями
Размер потока : 83,4 Мбайт (10%)
Default : Да
Forced : Нет





   Похожие торренты   Торрент   Размер 
В этой теме нет новых непрочитанных сообщений. Боевой киносборник № 3-4 (1941) DVDRip от New-Team

36 | 27

1.45 ГБ

В этой теме нет новых непрочитанных сообщений. Боевой киносборник № 1-2 (1941) DVDRip-AVC от New-Team

20 | 4

1.09 ГБ

В этой теме нет новых непрочитанных сообщений. Боевой киносборник № 1-2 (1941) DVDRip от New-Team

21 | 5

741.93 МБ

В этой теме нет новых непрочитанных сообщений. Боевой киносборник № 5-6 (1941) DVDRip от New-Team

19 | 15

1.46 ГБ

В этой теме нет новых непрочитанных сообщений. Боевой киносборник № 3-4 (1941) DVDRip-AVC от New-Team

20 | 6

1.45 ГБ

В этой теме нет новых непрочитанных сообщений. Боевой киносборник № 3-4 (1941) DVDRip от New-Team

15 | 9

744.37 МБ

В этой теме нет новых непрочитанных сообщений. Боевой киносборник № 5-6 (1941) DVDRip от New-Team

14 | 8

743.96 МБ




Вы не можете начинать темы
Вы не можете отвечать на сообщения
Вы не можете редактировать свои сообщения
Вы не можете удалять свои сообщения
Вы не можете добавлять вложения

Перейти:  
Для Мосгорсуда, Роскомнадзора и рекламодателей: mosgorsud-torrent[собачка]yandex.ru
 Вход
ppkBB3cker v.2 © 2008-2014 @ PPK
[ Time : 0.036s | 18 Queries | GZIP : Off ]

Торрент трекер RUTOR.IN, Не можете зайти на rutor.org? Какой новый адрес рутор? Какое зеркало рутор? Не работает rutor.org и зеркала? Тогда наш торрент специально для вас. Rutor.in неофициальное зеркало rutor. В случае если у Вас заблокирован rutor или вдруг Вы не можете на него зайти, то Вы без труда сможете скачать бесплатно и без рекламы последние новинки кино, игр, сериалов и прочего у нас, на Rutor.in. Не нужно использовать прокси, чтобы зайти на рутор, достаточно воспользоваться нашим ресурсом. Все новые фильмы, игры, сериалы, книги и музыка за 2013 и 2014 годы через торрент бесплатно. Скачивайте фильмы в хорошем качестве, игры для пк, xbox, playstation без регистрации. У нас вы найдете новые Зарубежные сериалы и Русские сериалы 2013, 2014, 2015 годов. Оставайтесь с нами, качайте любимые фильмы, игры, сериалы, книги и музыку.
cron