img image001 image001 image001 image001 image001 image001 image001 image001 image001 image001 image001 image001 image001 image001 image001

Planets Sun Sun Sun
Статистика раздачи
Автор: Nickolas3434 | Размер: 1.46 ГБ | Добавлен: 26 ноя 2014
Раздают: 14    Качают: 7
Скачать торрент
Скачать торрент
Описание торрента

СообщениеДобавлено: 26 ноя 2014 

Страна: СССР
Производство: Госкино, Мосфильм, Союздетфильм

Жанр: короткометражка, военный
Год выпуска: 1941-1942
Продолжительность: 02:05:40 (01:09:47+00:55:53)

Перевод: не требуется
Оригинальная аудиодорожка: русский
Cубтитры: нет

Режиссер: Леонид Альцев, Альберт Гендельштейн, Климентий Минц, Леонид Луков, Николай Садкович

В ролях:
Эраст Гарин, Владимир Канцель, Николай Охлопков, Иван Любезнов, Сергей Мартинсон, Павел Оленев, Владимир Владиславский, Михаил Яншин, Константин Зубов, Надежда Борская, Осип Абдулов, Петр Алейников, Борис Андреев, Марк Бернес, Иван Новосельцев, Татьяна Окуневская...

Описание:
Первый из «Боевых киносборников» вышел через полтора месяца после начала Великой Отечественной войны 2 августа 1941 года…





Исходник: DVD5 R5
Тип релиза: DVDRip
Контейнер: AVI

Видео: 720x544 (4:3), 25 fps, XviD ~ 1456 kbps avg, 0.149 bit/pixel
Аудио: 48 kHz, Dolby AC3 2.0, 192 kbps

Раздача от:
Боевой киносборник № 7 (69 мин)
Новеллы объединены интермедиями с участием Швейка — героя романа чешского писателя Ярослава Гашека, оказавшегося в фашистском концлагере. Новеллы рассказывают о борьбе с фашистскими оккупантами. В конце комендант концлагеря приказывает расстрелять Иосифа Швейка, однако пули, изготовленные для фашистов чешскими патриотами, не берут веселого солдата…

Ровно в семь
О бесстрашных чешских патриотах, организовавших в Праге, буквально под носом врага подпольную радиостанцию.

Эликсир бодрости
О героях Второй Мировой войны и трусости немецких солдат, способных идти в атаку лишь в пьяном состоянии.

Приемщик катастроф
О французских рабочих-патриотах, выпускающих для оккупантов заведомо непригодные самолеты.

Самый храбрый
О немецком солдате, искренне желающему своему фюреру оказаться рядом с ним на поле боя в момент, когда под ногами разорвется снаряд.

Настоящий патриот
О чешском солдате, который, находясь на службе в немецкой армии, с честью и радостью выполняет свои обязанности по захоронению фашистов.

Белая ворона
Памфлет о немецком офицере второй мировой войны, обирающем мирных жителей оккупированной Голландии под видом изучения культурного наследия.

Боевой киносборник № 8 (55 мин.)

Ночь над Белградом
О подпольщиках Белграда во время Второй мировой войны. Это рассказ героя, насильно отправленного на фронт и затем перебежавшего из немецкой армии серба.

Три танкиста
Экипаж советского танка, попав в немецкое кольцо, отстреливался до последнего патрона. Когда враги уже подожгли танк и герои приняли решение подорвать машину вместе с собой, на помощь подошло советское подкрепление и экипаж удалось спасти.

Общее
Полное имя : Boevoy.kinosbornik.№7-8.1941-1942.DVDRip_[New-team]_by_AVP_Studio.avi
Формат : AVI
Формат/Информация : Audio Video Interleave
Размер файла : 828 Мбайт
Продолжительность : 1 ч. 9 м.
Общий поток : 1658 Кбит/сек
Программа кодирования : VirtualDubModRus 1.5.10.2 (build 2542/release)
Библиотека кодирования : VirtualDubMod build 2542/release

Видео
Идентификатор : 0
Формат : MPEG-4 Visual
Профиль формата : Advanced Simple@L5
Параметр BVOP формата : 1
Параметр QPel формата : Нет
Параметр GMC формата : Без точки перехода
Параметр матрицы формата : Выборочная
Идентификатор кодека : XVID
Идентификатор кодека/Подсказка : XviD
Продолжительность : 1 ч. 9 м.
Битрейт : 1456 Кбит/сек
Ширина : 720 пикселей
Высота : 544 пикселя
Соотношение сторон : 4:3
Частота кадров : 25,000 кадров/сек
Цветовое пространство : YUV
Субдискретизация насыщенности : 4:2:0
Битовая глубина : 8 бит
Тип развёртки : Прогрессивная
Метод сжатия : С потерями
Бит/(Пиксели*Кадры) : 0.149
Размер потока : 727 Мбайт (88%)
Библиотека кодирования : XviD 73

Аудио
Идентификатор : 1
Формат : AC-3
Формат/Информация : Audio Coding 3
Расширение режима : CM (complete main)
Параметр Endianness формата : Big
Идентификатор кодека : 2000
Продолжительность : 1 ч. 9 м.
Вид битрейта : Постоянный
Битрейт : 192 Кбит/сек
Каналы : 2 канала
Расположение каналов : Front: L R
Частота : 48,0 КГц
Битовая глубина : 16 бит
Метод сжатия : С потерями
Размер потока : 95,8 Мбайт (12%)
Выравнивание : Разделение по промежуткам
Продолжительность промежутка : 40 мс. (1,00 видеокадр)
Время предзагрузки промежутка : 500 мс





   Похожие торренты   Торрент   Размер 
В этой теме нет новых непрочитанных сообщений. Боевой киносборник № 7-8 (1941-1942) DVDRip-AVC от New-Team

23 | 8

1.46 ГБ

В этой теме нет новых непрочитанных сообщений. Боевой киносборник № 7-8 (1941-1942) DVDRip от New-Team

22 | 11

899.65 МБ

В этой теме нет новых непрочитанных сообщений. Боевой киносборник № 9-10 (1942) DVDRip от New-Team

13 | 9

896.03 МБ

В этой теме нет новых непрочитанных сообщений. Боевой киносборник № 9-10 (1942) DVDRip от New-Team

18 | 2

1.46 ГБ

В этой теме нет новых непрочитанных сообщений. Боевой киносборник № 11-12 (1942) DVDRip-AVC от New-Team

29 | 8

1.46 ГБ

В этой теме нет новых непрочитанных сообщений. Боевой киносборник № 9-10 (1942) DVDRip-AVC от New-Team

20 | 12

1.45 ГБ

В этой теме нет новых непрочитанных сообщений. Боевой киносборник № 11-12 (1942) DVDRip от New-Team

18 | 4

1.46 ГБ




Вы не можете начинать темы
Вы не можете отвечать на сообщения
Вы не можете редактировать свои сообщения
Вы не можете удалять свои сообщения
Вы не можете добавлять вложения

Перейти:  
Для Мосгорсуда, Роскомнадзора и рекламодателей: mosgorsud-torrent[собачка]yandex.ru
 Вход
ppkBB3cker v.2 © 2008-2014 @ PPK
[ Time : 0.069s | 16 Queries | GZIP : Off ]

Торрент трекер RUTOR.IN, Не можете зайти на rutor.org? Какой новый адрес рутор? Какое зеркало рутор? Не работает rutor.org и зеркала? Тогда наш торрент специально для вас. Rutor.in неофициальное зеркало rutor. В случае если у Вас заблокирован rutor или вдруг Вы не можете на него зайти, то Вы без труда сможете скачать бесплатно и без рекламы последние новинки кино, игр, сериалов и прочего у нас, на Rutor.in. Не нужно использовать прокси, чтобы зайти на рутор, достаточно воспользоваться нашим ресурсом. Все новые фильмы, игры, сериалы, книги и музыка за 2013 и 2014 годы через торрент бесплатно. Скачивайте фильмы в хорошем качестве, игры для пк, xbox, playstation без регистрации. У нас вы найдете новые Зарубежные сериалы и Русские сериалы 2013, 2014, 2015 годов. Оставайтесь с нами, качайте любимые фильмы, игры, сериалы, книги и музыку.