img image001 image001 image001 image001 image001 image001 image001 image001 image001 image001 image001 image001 image001 image001 image001

Planets Sun Sun Sun
Статистика раздачи
Автор: Nickolas3434 | Размер: 899.65 МБ | Добавлен: 26 ноя 2014
Раздают: 22    Качают: 11
Скачать торрент
Скачать торрент
Описание торрента

СообщениеДобавлено: 26 ноя 2014 

Страна: СССР
Производство: Госкино, Мосфильм, Союздетфильм

Жанр: короткометражка, военный
Год выпуска: 1941-1942
Продолжительность: 02:05:40 (01:09:47+00:55:53)

Перевод: не требуется
Оригинальная аудиодорожка: русский
Cубтитры: нет

Режиссер: Леонид Альцев, Альберт Гендельштейн, Климентий Минц, Леонид Луков, Николай Садкович

В ролях:
Эраст Гарин, Владимир Канцель, Николай Охлопков, Иван Любезнов, Сергей Мартинсон, Павел Оленев, Владимир Владиславский, Михаил Яншин, Константин Зубов, Надежда Борская, Осип Абдулов, Петр Алейников, Борис Андреев, Марк Бернес, Иван Новосельцев, Татьяна Окуневская...

Описание:
Первый из «Боевых киносборников» вышел через полтора месяца после начала Великой Отечественной войны 2 августа 1941 года…





Исходник: DVD5 R5
Тип релиза: DVDRip
Контейнер: AVI

Видео: 576x432 (4:3), 25 fps, XviD ~ 868 kbps avg, 0.140 bit/pixel
Аудио: 48 kHz, MP3 2.0, 128 kbps

Раздача от:
Боевой киносборник № 7 (69 мин)
Новеллы объединены интермедиями с участием Швейка — героя романа чешского писателя Ярослава Гашека, оказавшегося в фашистском концлагере. Новеллы рассказывают о борьбе с фашистскими оккупантами. В конце комендант концлагеря приказывает расстрелять Иосифа Швейка, однако пули, изготовленные для фашистов чешскими патриотами, не берут веселого солдата…

Ровно в семь
О бесстрашных чешских патриотах, организовавших в Праге, буквально под носом врага подпольную радиостанцию.

Эликсир бодрости
О героях Второй Мировой войны и трусости немецких солдат, способных идти в атаку лишь в пьяном состоянии.

Приемщик катастроф
О французских рабочих-патриотах, выпускающих для оккупантов заведомо непригодные самолеты.

Самый храбрый
О немецком солдате, искренне желающему своему фюреру оказаться рядом с ним на поле боя в момент, когда под ногами разорвется снаряд.

Настоящий патриот
О чешском солдате, который, находясь на службе в немецкой армии, с честью и радостью выполняет свои обязанности по захоронению фашистов.

Белая ворона
Памфлет о немецком офицере второй мировой войны, обирающем мирных жителей оккупированной Голландии под видом изучения культурного наследия.

Боевой киносборник № 8 (55 мин.)

Ночь над Белградом
О подпольщиках Белграда во время Второй мировой войны. Это рассказ героя, насильно отправленного на фронт и затем перебежавшего из немецкой армии серба.

Три танкиста
Экипаж советского танка, попав в немецкое кольцо, отстреливался до последнего патрона. Когда враги уже подожгли танк и герои приняли решение подорвать машину вместе с собой, на помощь подошло советское подкрепление и экипаж удалось спасти.

Общее
Полное имя : Boevoy.kinosbornik.№7-8.1941-1942.DVDRip-745_[New-team]_by_AVP_Studio.avi
Формат : AVI
Формат/Информация : Audio Video Interleave
Размер файла : 402 Мбайт
Продолжительность : 55 м.
Общий поток : 1006 Кбит/сек
Программа кодирования : VirtualDubModRus 1.5.10.2 (build 2542/release)
Библиотека кодирования : VirtualDubMod build 2542/release

Видео
Идентификатор : 0
Формат : MPEG-4 Visual
Профиль формата : Advanced Simple@L5
Параметр BVOP формата : 1
Параметр QPel формата : Нет
Параметр GMC формата : Без точки перехода
Параметр матрицы формата : Выборочная
Идентификатор кодека : XVID
Идентификатор кодека/Подсказка : XviD
Продолжительность : 55 м.
Битрейт : 868 Кбит/сек
Ширина : 576 пикселей
Высота : 432 пикселя
Соотношение сторон : 4:3
Частота кадров : 25,000 кадров/сек
Цветовое пространство : YUV
Субдискретизация насыщенности : 4:2:0
Битовая глубина : 8 бит
Тип развёртки : Прогрессивная
Метод сжатия : С потерями
Бит/(Пиксели*Кадры) : 0.140
Размер потока : 347 Мбайт (86%)
Библиотека кодирования : XviD 73

Аудио
Идентификатор : 1
Формат : MPEG Audio
Версия формата : Version 1
Профиль формата : Layer 3
Идентификатор кодека : 55
Идентификатор кодека/Подсказка : MP3
Продолжительность : 55 м.
Вид битрейта : Постоянный
Битрейт : 128 Кбит/сек
Каналы : 2 канала
Частота : 48,0 КГц
Метод сжатия : С потерями
Размер потока : 51,2 Мбайт (13%)
Выравнивание : Соединение по промежуткам
Продолжительность промежутка : 40 мс. (1,00 видеокадр)
Время предзагрузки промежутка : 504 мс.
Библиотека кодирования : LAME3.99r
Настройки программы : -m s -V 4 -q 2 -lowpass 17 -b 128





   Похожие торренты   Торрент   Размер 
В этой теме нет новых непрочитанных сообщений. Боевой киносборник № 7-8 (1941-1942) DVDRip от New-Team

14 | 7

1.46 ГБ

В этой теме нет новых непрочитанных сообщений. Боевой киносборник № 7-8 (1941-1942) DVDRip-AVC от New-Team

23 | 8

1.46 ГБ

В этой теме нет новых непрочитанных сообщений. Боевой киносборник № 9-10 (1942) DVDRip от New-Team

13 | 9

896.03 МБ

В этой теме нет новых непрочитанных сообщений. Боевой киносборник № 9-10 (1942) DVDRip от New-Team

18 | 2

1.46 ГБ

В этой теме нет новых непрочитанных сообщений. Боевой киносборник № 11-12 (1942) DVDRip от New-Team

21 | 9

895.91 МБ

В этой теме нет новых непрочитанных сообщений. Боевой киносборник № 9-10 (1942) DVDRip-AVC от New-Team

20 | 12

1.45 ГБ

В этой теме нет новых непрочитанных сообщений. Боевой киносборник № 11-12 (1942) DVDRip-AVC от New-Team

29 | 10

1.46 ГБ




Вы не можете начинать темы
Вы не можете отвечать на сообщения
Вы не можете редактировать свои сообщения
Вы не можете удалять свои сообщения
Вы не можете добавлять вложения

Перейти:  
Для Мосгорсуда, Роскомнадзора и рекламодателей: mosgorsud-torrent[собачка]yandex.ru
 Вход
ppkBB3cker v.2 © 2008-2014 @ PPK
[ Time : 0.044s | 16 Queries | GZIP : Off ]

cron