img image001 image001 image001 image001 image001 image001 image001 image001 image001 image001 image001 image001 image001 image001 image001

Planets Sun Sun Sun
Статистика раздачи
Автор: Nickolas3434 | Размер: 1.46 ГБ | Добавлен: 26 ноя 2014
Раздают: 23    Качают: 8
Скачать торрент
Скачать торрент
Описание торрента

СообщениеДобавлено: 26 ноя 2014 

Страна: СССР
Производство: Госкино, Мосфильм, Союздетфильм

Жанр: короткометражка, военный
Год выпуска: 1941-1942
Продолжительность: 02:05:40 (01:09:47+00:55:53)

Перевод: не требуется
Оригинальная аудиодорожка: русский
Cубтитры: нет

Режиссер: Леонид Альцев, Альберт Гендельштейн, Климентий Минц, Леонид Луков, Николай Садкович

В ролях:
Эраст Гарин, Владимир Канцель, Николай Охлопков, Иван Любезнов, Сергей Мартинсон, Павел Оленев, Владимир Владиславский, Михаил Яншин, Константин Зубов, Надежда Борская, Осип Абдулов, Петр Алейников, Борис Андреев, Марк Бернес, Иван Новосельцев, Татьяна Окуневская...

Описание:
Первый из «Боевых киносборников» вышел через полтора месяца после начала Великой Отечественной войны 2 августа 1941 года…





Исходник: DVD5 R5
Тип релиза: DVDRip-AVC
Контейнер: MKV

Видео: 720->768x576 (4:3), 25 fps, H264 ~ 1464 kbps avg, 0.141 bit/pixel
Аудио: 48 kHz, Dolby AC3 2.0, 192 kbps

Раздача от:
Боевой киносборник № 7 (69 мин)
Новеллы объединены интермедиями с участием Швейка — героя романа чешского писателя Ярослава Гашека, оказавшегося в фашистском концлагере. Новеллы рассказывают о борьбе с фашистскими оккупантами. В конце комендант концлагеря приказывает расстрелять Иосифа Швейка, однако пули, изготовленные для фашистов чешскими патриотами, не берут веселого солдата…

Ровно в семь
О бесстрашных чешских патриотах, организовавших в Праге, буквально под носом врага подпольную радиостанцию.

Эликсир бодрости
О героях Второй Мировой войны и трусости немецких солдат, способных идти в атаку лишь в пьяном состоянии.

Приемщик катастроф
О французских рабочих-патриотах, выпускающих для оккупантов заведомо непригодные самолеты.

Самый храбрый
О немецком солдате, искренне желающему своему фюреру оказаться рядом с ним на поле боя в момент, когда под ногами разорвется снаряд.

Настоящий патриот
О чешском солдате, который, находясь на службе в немецкой армии, с честью и радостью выполняет свои обязанности по захоронению фашистов.

Белая ворона
Памфлет о немецком офицере второй мировой войны, обирающем мирных жителей оккупированной Голландии под видом изучения культурного наследия.

Боевой киносборник № 8 (55 мин.)

Ночь над Белградом
О подпольщиках Белграда во время Второй мировой войны. Это рассказ героя, насильно отправленного на фронт и затем перебежавшего из немецкой армии серба.

Три танкиста
Экипаж советского танка, попав в немецкое кольцо, отстреливался до последнего патрона. Когда враги уже подожгли танк и герои приняли решение подорвать машину вместе с собой, на помощь подошло советское подкрепление и экипаж удалось спасти.

Общее
Полное имя : Boevoy.kinosbornik.№7-8.1941-1942.DVDRip-AVC_[New-team]_by_AVP_Studio.mkv
Формат : Matroska
Версия формата : Version 2
Размер файла : 827 Мбайт
Продолжительность : 1 ч. 9 м.
Общий поток : 1658 Кбит/сек
Дата кодирования : UTC 2014-11-25 00:00:00
Программа кодирования : mkvmerge v6.1.0 ('Old Devil') built on Mar 4 2013 09:10:42
Библиотека кодирования : libebml v1.3.0 + libmatroska v1.4.0

Видео
Идентификатор : 1
Формат : AVC
Формат/Информация : Advanced Video Codec
Профиль формата : High@L4.1
Параметр CABAC формата : Да
Параметр ReFrames формата : 8 кадров
Идентификатор кодека : V_MPEG4/ISO/AVC
Продолжительность : 1 ч. 9 м.
Битрейт : 1464 Кбит/сек
Ширина : 720 пикселей
Высота : 576 пикселей
Соотношение сторон : 4:3
Режим частоты кадров : Постоянный
Частота кадров : 25,000 кадров/сек
Стандарт вещания : PAL
Цветовое пространство : YUV
Субдискретизация насыщенности : 4:2:0
Битовая глубина : 8 бит
Тип развёртки : Прогрессивная
Бит/(Пиксели*Кадры) : 0.141
Размер потока : 715 Мбайт (86%)
Библиотека кодирования : x264 core 138 r2356 a1d3d17
Настройки программы : cabac=1 / ref=8 / deblock=1:-2:-1 / analyse=0x3:0x113 / me=umh / subme=10 / psy=1 / psy_rd=1.00:0.05 / mixed_ref=1 / me_range=32 / chroma_me=1 / trellis=2 / 8x8dct=1 / cqm=0 / deadzone=21,11 / fast_pskip=0 / chroma_qp_offset=-3 / threads=6 / lookahead_threads=1 / sliced_threads=0 / nr=0 / decimate=0 / interlaced=0 / bluray_compat=0 / constrained_intra=0 / bframes=8 / b_pyramid=2 / b_adapt=2 / b_bias=0 / direct=3 / weightb=1 / open_gop=0 / weightp=2 / keyint=250 / keyint_min=25 / scenecut=40 / intra_refresh=0 / rc=2pass / mbtree=0 / bitrate=1464 / ratetol=1.0 / qcomp=0.60 / qpmin=0 / qpmax=69 / qpstep=4 / cplxblur=20.0 / qblur=0.5 / ip_ratio=1.40 / pb_ratio=1.30 / aq=1:1.00
Default : Да
Forced : Нет

Аудио
Идентификатор : 2
Формат : AC-3
Формат/Информация : Audio Coding 3
Расширение режима : CM (complete main)
Параметр Endianness формата : Big
Идентификатор кодека : A_AC3
Продолжительность : 1 ч. 9 м.
Вид битрейта : Постоянный
Битрейт : 192 Кбит/сек
Каналы : 2 канала
Расположение каналов : Front: L R
Частота : 48,0 КГц
Битовая глубина : 16 бит
Метод сжатия : С потерями
Размер потока : 95,8 Мбайт (12%)
Default : Да
Forced : Нет





   Похожие торренты   Торрент   Размер 
В этой теме нет новых непрочитанных сообщений. Боевой киносборник № 7-8 (1941-1942) DVDRip от New-Team

22 | 11

899.65 МБ

В этой теме нет новых непрочитанных сообщений. Боевой киносборник № 7-8 (1941-1942) DVDRip от New-Team

14 | 7

1.46 ГБ

В этой теме нет новых непрочитанных сообщений. Боевой киносборник № 11-12 (1942) DVDRip от New-Team

18 | 4

1.46 ГБ

В этой теме нет новых непрочитанных сообщений. Боевой киносборник № 11-12 (1942) DVDRip от New-Team

21 | 7

895.91 МБ

В этой теме нет новых непрочитанных сообщений. Боевой киносборник № 9-10 (1942) DVDRip от New-Team

18 | 2

1.46 ГБ

В этой теме нет новых непрочитанных сообщений. Боевой киносборник № 11-12 (1942) DVDRip-AVC от New-Team

29 | 8

1.46 ГБ

В этой теме нет новых непрочитанных сообщений. Боевой киносборник № 9-10 (1942) DVDRip-AVC от New-Team

20 | 12

1.45 ГБ




Вы не можете начинать темы
Вы не можете отвечать на сообщения
Вы не можете редактировать свои сообщения
Вы не можете удалять свои сообщения
Вы не можете добавлять вложения

Перейти:  
Для Мосгорсуда, Роскомнадзора и рекламодателей: mosgorsud-torrent[собачка]yandex.ru
 Вход
ppkBB3cker v.2 © 2008-2014 @ PPK
[ Time : 0.032s | 15 Queries | GZIP : Off ]

Торрент трекер RUTOR.IN, Не можете зайти на rutor.org? Какой новый адрес рутор? Какое зеркало рутор? Не работает rutor.org и зеркала? Тогда наш торрент специально для вас. Rutor.in неофициальное зеркало rutor. В случае если у Вас заблокирован rutor или вдруг Вы не можете на него зайти, то Вы без труда сможете скачать бесплатно и без рекламы последние новинки кино, игр, сериалов и прочего у нас, на Rutor.in. Не нужно использовать прокси, чтобы зайти на рутор, достаточно воспользоваться нашим ресурсом. Все новые фильмы, игры, сериалы, книги и музыка за 2013 и 2014 годы через торрент бесплатно. Скачивайте фильмы в хорошем качестве, игры для пк, xbox, playstation без регистрации. У нас вы найдете новые Зарубежные сериалы и Русские сериалы 2013, 2014, 2015 годов. Оставайтесь с нами, качайте любимые фильмы, игры, сериалы, книги и музыку.