img image001 image001 image001 image001 image001 image001 image001 image001 image001 image001 image001 image001 image001 image001 image001

Planets Sun Sun Sun
Статистика раздачи
Автор: Nickolas3434 | Размер: 1.46 ГБ | Добавлен: 26 ноя 2014
Раздают: 18    Качают: 2
Скачать торрент
Скачать торрент
Описание торрента

СообщениеДобавлено: 26 ноя 2014 

Страна: СССР
Производство: Мосфильм, Киевская киностудия

Жанр: короткометражка, военный
Год выпуска: 1942
Продолжительность: 01:56:18 (01:05:21+00:50:57)

Перевод: не требуется
Оригинальная аудиодорожка: русский
Cубтитры: нет

Режиссер: Владимир Браун, Марк Донской, Игорь Савченко, Ефим Арон, Борис Барнет

В ролях:
Ю. Анажевская, Марк Бернес, Николай Бубнов, С. Дитлович, Леонид Кмит, Николай Комиссаров, В. Красновецкий, В. Миронова, Борис Рунге, Николай Братерский, Михаил Астангов, Николай П. Черкасов, Лариса Емельянцева, Николай Мичурин, Вера Орлова, Владимир Шишкин, Моисей Голдблат, Александра Денисова, Владимир Уральский, Григорий Шпигель...

Описание:
Первый из «Боевых киносборников» вышел через полтора месяца после начала Великой Отечественной войны 2 августа 1941 года…





Исходник: DVD5 R5
Тип релиза: DVDRip
Контейнер: AVI

Видео: 720x544 (4:3), 25 fps, XviD ~ 1592 kbps avg, 0.163 bit/pixel
Аудио: 48 kHz, Dolby AC3 2.0, 192 kbps

Раздача от:
Боевой киносборник № 9 (71 мин.)

Квартал 14
Трагическая история квартала № 14. История гласит, что фашисты жестоко убили польских граждан, которые читали призывы к противостоянию гитлеровцам, но смелые поляки отчаянно давали отпор фашистам на улицах города. Советские солдаты нашли письменные данные о тех событиях и одну выжившую польскую девушку.

Синие скалы
Новелла рассказывает, как одна чешская семья обещает немцам оказывать им помощь. От чехов требуется отвести карательный фашистский отряд в соседний город, в котором восстание. Дорога проходит через крутые Синие скалы. Во время пути отважные чехи на полном ходу направляют автомобили в пропасть и ценой собственной жизни уничтожают оккупантов.

Маяк
В новелле рассказывается о борьбе советского народа с фашизмом, когда воевал и стар, и млад, помогая армии, приближая победу. Юный герой, роль которого исполнил пятнадцатилетний Борис Рунге, будущий артист Московского театра сатиры и "Пан профессор" в телевизионном сериале "Кабачок 13 стульев", отправляется в разведку во вражеский тыл, напутствуемый материнской песней

Боевой киносборник № 10 (51 мин.)

Бесценная голова
О польском патриоте, которого разыскивают гитлеровцы, и за голову которого назначена цена в 5 тысяч марок.

Молодое вино
Борьба за сына позволяет отцу иначе взглянуть на оккупацию его Родины фашистами.

Общее
Полное имя : Boevoy.kinosbornik.№9-10.1942.DVDRip_[New-team]_by_AVP_Studio.avi
Формат : AVI
Формат/Информация : Audio Video Interleave
Размер файла : 838 Мбайт
Продолжительность : 1 ч. 5 м.
Общий поток : 1794 Кбит/сек
Программа кодирования : VirtualDubModRus 1.5.10.2 (build 2542/release)
Библиотека кодирования : VirtualDubMod build 2542/release

Видео
Идентификатор : 0
Формат : MPEG-4 Visual
Профиль формата : Advanced Simple@L5
Параметр BVOP формата : 1
Параметр QPel формата : Нет
Параметр GMC формата : Без точки перехода
Параметр матрицы формата : Выборочная
Идентификатор кодека : XVID
Идентификатор кодека/Подсказка : XviD
Продолжительность : 1 ч. 5 м.
Битрейт : 1592 Кбит/сек
Ширина : 720 пикселей
Высота : 544 пикселя
Соотношение сторон : 4:3
Частота кадров : 25,000 кадров/сек
Цветовое пространство : YUV
Субдискретизация насыщенности : 4:2:0
Битовая глубина : 8 бит
Тип развёртки : Прогрессивная
Метод сжатия : С потерями
Бит/(Пиксели*Кадры) : 0.163
Размер потока : 744 Мбайт (89%)
Библиотека кодирования : XviD 73

Аудио
Идентификатор : 1
Формат : AC-3
Формат/Информация : Audio Coding 3
Расширение режима : CM (complete main)
Параметр Endianness формата : Big
Идентификатор кодека : 2000
Продолжительность : 1 ч. 5 м.
Вид битрейта : Постоянный
Битрейт : 192 Кбит/сек
Каналы : 2 канала
Расположение каналов : Front: L R
Частота : 48,0 КГц
Битовая глубина : 16 бит
Метод сжатия : С потерями
Размер потока : 89,8 Мбайт (11%)
Выравнивание : Разделение по промежуткам
Продолжительность промежутка : 40 мс. (1,00 видеокадр)
Время предзагрузки промежутка : 500 мс





   Похожие торренты   Торрент   Размер 
В этой теме нет новых непрочитанных сообщений. Боевой киносборник № 11-12 (1942) DVDRip от New-Team

18 | 4

1.46 ГБ

В этой теме нет новых непрочитанных сообщений. Боевой киносборник № 11-12 (1942) DVDRip-AVC от New-Team

29 | 8

1.46 ГБ

В этой теме нет новых непрочитанных сообщений. Боевой киносборник № 9-10 (1942) DVDRip-AVC от New-Team

20 | 12

1.45 ГБ

В этой теме нет новых непрочитанных сообщений. Боевой киносборник № 9-10 (1942) DVDRip от New-Team

13 | 9

896.03 МБ

В этой теме нет новых непрочитанных сообщений. Боевой киносборник № 11-12 (1942) DVDRip от New-Team

21 | 7

895.91 МБ

В этой теме нет новых непрочитанных сообщений. Боевой киносборник № 7-8 (1941-1942) DVDRip от New-Team

14 | 7

1.46 ГБ

В этой теме нет новых непрочитанных сообщений. Боевой киносборник № 7-8 (1941-1942) DVDRip-AVC от New-Team

23 | 8

1.46 ГБ




Вы не можете начинать темы
Вы не можете отвечать на сообщения
Вы не можете редактировать свои сообщения
Вы не можете удалять свои сообщения
Вы не можете добавлять вложения

Перейти:  
Для Мосгорсуда, Роскомнадзора и рекламодателей: mosgorsud-torrent[собачка]yandex.ru
 Вход
ppkBB3cker v.2 © 2008-2014 @ PPK
[ Time : 0.926s | 16 Queries | GZIP : Off ]

Торрент трекер RUTOR.IN, Не можете зайти на rutor.org? Какой новый адрес рутор? Какое зеркало рутор? Не работает rutor.org и зеркала? Тогда наш торрент специально для вас. Rutor.in неофициальное зеркало rutor. В случае если у Вас заблокирован rutor или вдруг Вы не можете на него зайти, то Вы без труда сможете скачать бесплатно и без рекламы последние новинки кино, игр, сериалов и прочего у нас, на Rutor.in. Не нужно использовать прокси, чтобы зайти на рутор, достаточно воспользоваться нашим ресурсом. Все новые фильмы, игры, сериалы, книги и музыка за 2013 и 2014 годы через торрент бесплатно. Скачивайте фильмы в хорошем качестве, игры для пк, xbox, playstation без регистрации. У нас вы найдете новые Зарубежные сериалы и Русские сериалы 2013, 2014, 2015 годов. Оставайтесь с нами, качайте любимые фильмы, игры, сериалы, книги и музыку.