img image001 image001 image001 image001 image001 image001 image001 image001 image001 image001 image001 image001 image001 image001 image001

Planets Sun Sun Sun
Статистика раздачи
Автор: Nickolas3434 | Размер: 1.09 ГБ | Добавлен: 26 ноя 2014
Раздают: 72    Качают: 11
Скачать торрент
Скачать торрент
Описание торрента

СообщениеДобавлено: 26 ноя 2014 

Год выпуска: 2009
Страна: Россия
Жанр: мелодрама
Продолжительность: 01:17:14
Перевод: Не требуется
Cубтитры: нет
Режиссер: Сергей Ткачев
Сценарий: Сергей Ткачев
Продюсер: Наталия Ткачева, Сергей Ткачев
Оператор: Сергей Ткачев
Композитор: Сергей Ткачев
В ролях: Галина Тюнина;Юрий Степанов;Наталия Ткачева;Владислав Сыч;Кирилл Пирогов;Клавдия Лашкина
Описание: Она любит кататься в троллейбусе и читать умные книги… Он любит сидеть у воды и пить газировку… Она любит записывать свои мысли на ходу и радоваться, что они не кончаются… Он любит смотреть, как приходят катера, и придумывать пассажирам биографии… Она любит мороженое и сигареты с ментолом… А он — лошадей и витрины магазинов… Ей приходится бродить по ночным улицам, даже если не хочется… Он обожает ночной город, который помогает ему мечтать… И однажды… совершенно случайно… Они встречаются… ОН и ОНА…
качество:
DVDRip
Формат: AVI
Видео кодек: XviD
Аудио кодек: AC3
Видео: 720x400 (16:9), 25.000 fps, XviD, 1 824 Kbps
Аудио: Аудио #1: AC3, 192 Kbps, 48.0 KHz, 2 ch

[code]General
Format : AVI
Format/Info : Audio Video Interleave
File size : 1.09 GiB
Duration : 1h 17mn
Overall bit rate : 2 025 Kbps
Director : bm11
Writing application : VirtualDubMod 1.5.10.3 | www.virtualdub-fr.org || (build 2550/release)
Video
ID : 0
Format : MPEG-4 Visual
Format profile : Advanced Simple@L5
Format settings, BVOP : Yes
Format settings, QPel : No
Format settings, GMC : No warppoints
Format settings, Matrix : Custom
Codec ID : XVID
Codec ID/Hint : XviD
Duration : 1h 17mn
Bit rate : 1 824 Kbps
Width : 720 pixels
Height : 400 pixels
Display aspect ratio : 16:9
Frame rate : 25.000 fps
Color space : YUV
Chroma subsampling : 4:2:0
Bit depth : 8 bits
Scan type : Progressive
Compression mode : Lossy
Bits/(Pixel*Frame) : 0.253
Stream size : 1 008 MiB (90%)
Writing library : XviD 73
Audio
ID : 1
Format : AC-3
Format/Info : Audio Coding 3
Mode extension : CM (complete main)
Format settings, Endianness : Big
Codec ID : 2000
Duration : 1h 17mn
Bit rate mode : Constant
Bit rate : 192 Kbps
Channel(s) : 2 channels
Channel positions : Front: L R
Sampling rate : 48.0 KHz
Bit depth : 16 bits
Compression mode : Lossy
Stream size : 106 MiB (9%)
Alignment : Split accross interleaves
Interleave, duration : 40 ms (1.00 video frame)
Interleave, preload duration : 500 ms


Семпл



   Похожие торренты   Торрент   Размер 
В этой теме нет новых непрочитанных сообщений. Утро (2009) DVDRip

7 | 5

699.57 МБ

В этой теме нет новых непрочитанных сообщений. Михаил Гуров - Зимнее утро (2009) MP3

0 | 2

28.26 МБ

В этой теме нет новых непрочитанных сообщений. Доброе утро (1955) DVDRip

165 | 32

1.37 ГБ

В этой теме нет новых непрочитанных сообщений. Утро без отметок (1983) DVDRip

133 | 5

702.17 МБ

В этой теме нет новых непрочитанных сообщений. Зимнее утро (1966) DVDRip от ExKinoRay

48 | 7

1.46 ГБ

В этой теме нет новых непрочитанных сообщений. На следующее утро / The Morning After (1986) DVDRip | P2

3 | 4

1.44 ГБ

В этой теме нет новых непрочитанных сообщений. Утро понедельника / Lundi matin (2002) DVDRip-AVC

6 | 6

3.25 ГБ




Вы не можете начинать темы
Вы не можете отвечать на сообщения
Вы не можете редактировать свои сообщения
Вы не можете удалять свои сообщения
Вы не можете добавлять вложения

Перейти:  
Для Мосгорсуда, Роскомнадзора и рекламодателей: mosgorsud-torrent[собачка]yandex.ru
 Вход
ppkBB3cker v.2 © 2008-2014 @ PPK
[ Time : 0.046s | 17 Queries | GZIP : Off ]

cron