img image001 image001 image001 image001 image001 image001 image001 image001 image001 image001 image001 image001 image001 image001 image001

Planets Sun Sun Sun
Статистика раздачи
Автор: Nickolas3434 | Размер: 1.6 ГБ | Добавлен: 27 ноя 2014
Раздают: 193    Качают: 15
Скачать торрент
Скачать торрент
Описание торрента

СообщениеДобавлено: 27 ноя 2014 

Информация о фильме
Оригинальное название: Киндер-Вилейское привидение
Год выхода: 2014
Жанр: Фэнтези, комедия, семейный
Режиссер: Елена Турова
В ролях: Сергей Журавель, Зоя Белохвостик, Виктор Манаев, Вячеслав Павлють, Роман Подоляко, Алеся Самоховец, Артём Боровик, Влад Боровик
О фильме:
Некогда подающий надежды продюсер Костя теперь не у дел: его креативная задумка, обещавшая автору славу и богатство, с треском провалилась. И нынче горе-шоумену не остаётся ничего другого, как переехать с семьёй в Вилейский район Беларуси. Здесь его родовое гнездо — доставшаяся в наследство старинная усадьба с потрясающим парком. Хм, может, ещё не всё потеряно? Находчивый предприниматель решается на довольно рискованный шаг. А что если превратить имение в… городок аттракционов под названием «Киндер-Виль» — этакий белорусский Диснейленд?! Идея приходится по душе всем, кроме самого древнего обитателя дома — злого духа волшебника, в стародавние времена замурованного в подвале за жестокость. Ни один уважающий себя призрак не станет терпеть толпы галдящих детишек по соседству! Значит, во что бы то ни стало необходимо выдворить шумое семейство…

Страна: Беларусь
Студия: Беларусьфильм
Продолжительность: 01:31:39
Язык: Русский
Файл
Качество: DVB
Видео: MPEG-2, 2242 Кбит/с, 704x576@768x576
Звук: (MP2, 2 ch, 128 Кбит/с)
Семпл

Общее
Идентификатор : 19 (0x13)
Полное имя : Kinder.Vilejskoe.prividenie.2014.DVB.MediaClub.ts
Формат : MPEG-TS
Размер файла : 1,60 Гбайт
Продолжительность : 1 ч. 31 м.
Режим общего битрейта : Переменный
Общий поток : 2494 Кбит/сек
Видео
Идентификатор : 204 (0xCC)
Идентификатор меню : 19104 (0x4AA0)
Формат : AVC
Формат/Информация : Advanced Video Codec
Профиль формата : High@L3.0
Параметр CABAC формата : Да
Параметр ReFrames формата : 4 кадра
Идентификатор кодека : 27
Продолжительность : 1 ч. 31 м.
Битрейт : 2242 Кбит/сек
Ширина : 704 пикселя
Высота : 576 пикселей
Соотношение сторон : 4:3
Частота кадров : 25,000 кадров/сек
Стандарт вещания : Component
Цветовое пространство : YUV
Субдискретизация насыщенности : 4:2:0
Битовая глубина : 8 бит
Тип развёртки : Прогрессивная
Бит/(Пиксели*Кадры) : 0.221
Размер потока : 1,43 Гбайт (90%)
Основные цвета : BT.601 PAL
Характеристики трансфера : BT.470 System B, BT.470 System G
Коэффициенты матрицы : BT.601
Аудио
Идентификатор : 304 (0x130)
Идентификатор меню : 19104 (0x4AA0)
Формат : MPEG Audio
Версия формата : Version 1
Профиль формата : Layer 2
Идентификатор кодека : 4
Продолжительность : 1 ч. 31 м.
Вид битрейта : Постоянный
Битрейт : 128 Кбит/сек
Каналы : 2 канала
Частота : 48,0 КГц
Метод сжатия : С потерями
Задержка видео : -754 мс.
Размер потока : 83,9 Мбайт (5%)
Язык : Russian
Язык, дополнительно : Clean effects
Меню
Идентификатор : 1904 (0x770)
Идентификатор меню : 19104 (0x4AA0)
Продолжительность : 1 ч. 31 м.
Список : 204 (0xCC) (AVC) / 304 (0x130) (MPEG Audio, Russian)
Язык : / Russian

Релиз от:



   Похожие торренты   Торрент   Размер 
В этой теме нет новых непрочитанных сообщений. Киндервилейское привидение / Киндер-Вилейское привидение (2014) BD DVB от AND03AND

10 | 4

1.69 ГБ

В этой теме нет новых непрочитанных сообщений. Киндер-Вилейское привидение (2014) SATRip от RiperAM

406 | 50

1.37 ГБ

В этой теме нет новых непрочитанных сообщений. Привидение / Ghost (1990) BDRip от MediaClub | КПК

118 | 8

549.34 МБ

В этой теме нет новых непрочитанных сообщений. Киндер-Рок - Коллекция (2009-2012) МР3

0 | 0

3.65 ГБ

В этой теме нет новых непрочитанных сообщений. Привет, киндер! (2008) SATRip - Files-X

802 | 12

1.37 ГБ

В этой теме нет новых непрочитанных сообщений. Привидение Сайспис Крик / Cypress Creek (2014) BDRip | A

822 | 39

1.46 ГБ

В этой теме нет новых непрочитанных сообщений. Привидение в Сайспис Крик / Cypress Creek (2014) DVDRip | L1

881 | 50

1.15 ГБ




Вы не можете начинать темы
Вы не можете отвечать на сообщения
Вы не можете редактировать свои сообщения
Вы не можете удалять свои сообщения
Вы не можете добавлять вложения

Перейти:  
Для Мосгорсуда, Роскомнадзора и рекламодателей: mosgorsud-torrent[собачка]yandex.ru
 Вход
ppkBB3cker v.2 © 2008-2014 @ PPK
[ Time : 0.051s | 16 Queries | GZIP : Off ]

Торрент трекер RUTOR.IN, Не можете зайти на rutor.org? Какой новый адрес рутор? Какое зеркало рутор? Не работает rutor.org и зеркала? Тогда наш торрент специально для вас. Rutor.in неофициальное зеркало rutor. В случае если у Вас заблокирован rutor или вдруг Вы не можете на него зайти, то Вы без труда сможете скачать бесплатно и без рекламы последние новинки кино, игр, сериалов и прочего у нас, на Rutor.in. Не нужно использовать прокси, чтобы зайти на рутор, достаточно воспользоваться нашим ресурсом. Все новые фильмы, игры, сериалы, книги и музыка за 2013 и 2014 годы через торрент бесплатно. Скачивайте фильмы в хорошем качестве, игры для пк, xbox, playstation без регистрации. У нас вы найдете новые Зарубежные сериалы и Русские сериалы 2013, 2014, 2015 годов. Оставайтесь с нами, качайте любимые фильмы, игры, сериалы, книги и музыку.
cron