img image001 image001 image001 image001 image001 image001 image001 image001 image001 image001 image001 image001 image001 image001 image001

Planets Sun Sun Sun
Статистика раздачи
Автор: Nickolas3434 | Размер: 745.21 МБ | Добавлен: 30 ноя 2014
Раздают: 194    Качают: 7
Скачать торрент
Скачать торрент
Описание торрента

СообщениеДобавлено: 30 ноя 2014 


Страна: Россия / SV-Aurum Production
Жанр: драма
Год выпуска: 2014
Продолжительность: 01:24:40
Перевод: Не требуется
Cубтитры: нет
Оригинальная аудиодорожка: русский
Режиссер: Вера Сторожева
В ролях: Анна Щербинина, Ольга Попова, Ксавье Галле, Сергей Пускепалис, Глеб Пускепалис, Светлана Тома, Сергей Попов, Максим Битюков, Лариса Кривцова, Татьяна Медведева...
Описание: Анна, парижская фотомодель, лицо известной косметической фирмы с благотворительной акцией приезжает в старинный русский город. Здесь в детдоме прошло ее детство, но много лет назад Анну удочерила супружеская пара из Франции. Жизнь девушки, казалось бы, устроилась благополучно. Но за девять дней в родных местах Анне предстоит узнать тайну своей настоящей семьи и найти себя…

Качество: DVDRip / DVD5 R5 от «Paradise»
Формат: AVI
Видео: 720x384 (1.85:1), 25.000 fps, XviD, ~1093 kbps avg, 0.158 bit/pix
Аудио: 48 kHz, Dolby MP3, 2 ch, 128 kbps, русский
Раздача от:
General
Format : AVI
Format/Info : Audio Video Interleave
File size : 745 MiB
Duration : 1h 24mn
Overall bit rate : 1 231 Kbps
Writing application : VirtualDubMod 1.5.10.3 | www.virtualdub-fr.org || (build 2550/release)
Writing library : VirtualDubMod build 2550/release
Video
ID : 0
Format : MPEG-4 Visual
Format profile : Advanced Simple@L5
Format settings, BVOP : 1
Format settings, QPel : No
Format settings, GMC : No warppoints
Format settings, Matrix : Custom
Codec ID : XVID
Codec ID/Hint : XviD
Duration : 1h 24mn
Bit rate : 1 093 Kbps
Width : 720 pixels
Height : 384 pixels
Display aspect ratio : 1.85:1
Frame rate : 25.000 fps
Color space : YUV
Chroma subsampling : 4:2:0
Bit depth : 8 bits
Scan type : Progressive
Compression mode : Lossy
Bits/(Pixel*Frame) : 0.158
Stream size : 662 MiB (89%)
Writing library : XviD 73
Audio
ID : 1
Format : MPEG Audio
Format version : Version 1
Format profile : Layer 3
Codec ID : 55
Codec ID/Hint : MP3
Duration : 1h 24mn
Bit rate mode : Constant
Bit rate : 128 Kbps
Channel(s) : 2 channels
Sampling rate : 48.0 KHz
Compression mode : Lossy
Stream size : 77.5 MiB (10%)
Alignment : Aligned on interleaves
Interleave, duration : 40 ms (1.00 video frame)
Interleave, preload duration : 504 ms





   Похожие торренты   Торрент   Размер 
В этой теме нет новых непрочитанных сообщений. 9 дней и одно утро (2014) DVDRip от New-Team | лицензия

1162 | 79

1.46 ГБ

В этой теме нет новых непрочитанных сообщений. 9 дней и одно утро (2014) DVDRip-AVC от New-Team | лицензия

236 | 11

1.46 ГБ

В этой теме нет новых непрочитанных сообщений. 9 дней и одно утро (2014) DVD5 от New-Team | Лицензия

158 | 19

4.02 ГБ

В этой теме нет новых непрочитанных сообщений. 9 дней и одно утро (2014) HDTV 1080i

98 | 45

4.17 ГБ

В этой теме нет новых непрочитанных сообщений. Джеймс Хедли Чейз - В одно ясное летнее утро (2013) MP3

303 | 2

207.28 МБ

В этой теме нет новых непрочитанных сообщений. Двадцать Одно / 21 (2008) BDRip 1080p от NOLIMITS-TEAM

32 | 3

4.32 ГБ

В этой теме нет новых непрочитанных сообщений. Доброе утро (1955) SATRip от New-Team

7 | 2

1.09 ГБ




Вы не можете начинать темы
Вы не можете отвечать на сообщения
Вы не можете редактировать свои сообщения
Вы не можете удалять свои сообщения
Вы не можете добавлять вложения

Перейти:  
Для Мосгорсуда, Роскомнадзора и рекламодателей: mosgorsud-torrent[собачка]yandex.ru
 Вход
ppkBB3cker v.2 © 2008-2014 @ PPK
[ Time : 0.049s | 15 Queries | GZIP : Off ]

Торрент трекер RUTOR.IN, Не можете зайти на rutor.org? Какой новый адрес рутор? Какое зеркало рутор? Не работает rutor.org и зеркала? Тогда наш торрент специально для вас. Rutor.in неофициальное зеркало rutor. В случае если у Вас заблокирован rutor или вдруг Вы не можете на него зайти, то Вы без труда сможете скачать бесплатно и без рекламы последние новинки кино, игр, сериалов и прочего у нас, на Rutor.in. Не нужно использовать прокси, чтобы зайти на рутор, достаточно воспользоваться нашим ресурсом. Все новые фильмы, игры, сериалы, книги и музыка за 2013 и 2014 годы через торрент бесплатно. Скачивайте фильмы в хорошем качестве, игры для пк, xbox, playstation без регистрации. У нас вы найдете новые Зарубежные сериалы и Русские сериалы 2013, 2014, 2015 годов. Оставайтесь с нами, качайте любимые фильмы, игры, сериалы, книги и музыку.