img image001 image001 image001 image001 image001 image001 image001 image001 image001 image001 image001 image001 image001 image001 image001

Planets Sun Sun Sun
Статистика раздачи
Автор: Nickolas3434 | Размер: 743.86 МБ | Добавлен: 29 ноя 2014
Раздают: 4    Качают: 32
Скачать торрент
Скачать торрент
Описание торрента

СообщениеДобавлено: 29 ноя 2014 

Страна: СССР
Производство: Ленфильм
Жанр: военный
Год выпуска: 1947
Продолжительность: 01:32:21
Перевод: не требуется
Оригинальная аудиодорожка: русский
Cубтитры: нет
Режиссер: Александр Иванов
В ролях:
А.Димитер, Л.Шпильберг, В.Лине, Л.Лейман, А.Филипсон, В.Силиниек, П.Волков, Э.Зиле, Г.Зоммер, Я.Осис...
Описание:
В годы Второй мировой войны из-за предательства лейтенант советской армии Август Гриезе попадает в плен. Фашисты пытаются склонить его на свою сторону. Август отказывается. Тогда фашисты по радио передают якобы обращение Августа к латышам прекратить сопротивление. Товарищи по оружию считают его предателем. Августу удается бежать из плена. Вскоре по всей Латвии разносятся вести о появившемся мстителе-одиночке, бесстрашном партизане по имени Крум...





Исходник: DVD5 R5
Тип релиза: DVDRip
Контейнер: AVI
Видео: 608x448 (4:3), 25 fps, XviD ~ 988 kbps avg, 0.145 bit/pixel
Аудио: 48 kHz, MP3 2.0, 128 kbps
Раздача от:
Общее
Полное имя : Vozvrashhenie.s.pobedoy.1947.DVDRip-745_[New-team]_by_AVP_Studio.avi
Формат : AVI
Формат/Информация : Audio Video Interleave
Размер файла : 744 Мбайт
Продолжительность : 1 ч. 32 м.
Общий поток : 1126 Кбит/сек
Программа кодирования : VirtualDubModRus 1.5.10.2 (build 2542/release)
Библиотека кодирования : VirtualDubMod build 2542/release
Видео
Идентификатор : 0
Формат : MPEG-4 Visual
Профиль формата : Advanced Simple@L5
Параметр BVOP формата : 1
Параметр QPel формата : Нет
Параметр GMC формата : Без точки перехода
Параметр матрицы формата : Выборочная
Идентификатор кодека : XVID
Идентификатор кодека/Подсказка : XviD
Продолжительность : 1 ч. 32 м.
Битрейт : 988 Кбит/сек
Ширина : 608 пикселей
Высота : 448 пикселей
Соотношение сторон : 4:3
Частота кадров : 25,000 кадров/сек
Цветовое пространство : YUV
Субдискретизация насыщенности : 4:2:0
Битовая глубина : 8 бит
Тип развёртки : Прогрессивная
Метод сжатия : С потерями
Бит/(Пиксели*Кадры) : 0.145
Размер потока : 653 Мбайт (88%)
Библиотека кодирования : XviD 73
Аудио
Идентификатор : 1
Формат : MPEG Audio
Версия формата : Version 1
Профиль формата : Layer 3
Идентификатор кодека : 55
Идентификатор кодека/Подсказка : MP3
Продолжительность : 1 ч. 32 м.
Вид битрейта : Постоянный
Битрейт : 128 Кбит/сек
Каналы : 2 канала
Частота : 48,0 КГц
Метод сжатия : С потерями
Размер потока : 84,6 Мбайт (11%)
Выравнивание : Соединение по промежуткам
Продолжительность промежутка : 40 мс. (1,00 видеокадр)
Время предзагрузки промежутка : 504 мс.
Библиотека кодирования : LAME3.99r
Настройки программы : -m s -V 4 -q 2 -lowpass 17 -b 128





   Похожие торренты   Торрент   Размер 
В этой теме нет новых непрочитанных сообщений. Возвращение с победой (1947) DVDRip от New-Team

8 | 4

1.46 ГБ

В этой теме нет новых непрочитанных сообщений. Возвращение с победой (1947) DVDRip-AVC от New-Team

28 | 5

1.46 ГБ

В этой теме нет новых непрочитанных сообщений. Возвращение с Победой / Mājup ar uzvaru (1947) DVDRip от Киномагия

2 | 3

1.37 ГБ

В этой теме нет новых непрочитанных сообщений. Мы ждём вас с победой (1941) DVDRip от New-Team

6 | 4

495.66 МБ

В этой теме нет новых непрочитанных сообщений. Мы ждём вас с победой (1941) DVDRip-AVC от New-Team

41 | 4

496.08 МБ

В этой теме нет новых непрочитанных сообщений. Во имя жизни (1947) DVDRip-AVC от New-Team

10 | 1

1.46 ГБ

В этой теме нет новых непрочитанных сообщений. Пирогов (1947) DVDRip-AVC от New-Team

11 | 2

1.46 ГБ




Вы не можете начинать темы
Вы не можете отвечать на сообщения
Вы не можете редактировать свои сообщения
Вы не можете удалять свои сообщения
Вы не можете добавлять вложения

Перейти:  
Для Мосгорсуда, Роскомнадзора и рекламодателей: mosgorsud-torrent[собачка]yandex.ru
 Вход
ppkBB3cker v.2 © 2008-2014 @ PPK
[ Time : 0.052s | 16 Queries | GZIP : Off ]

Торрент трекер RUTOR.IN, Не можете зайти на rutor.org? Какой новый адрес рутор? Какое зеркало рутор? Не работает rutor.org и зеркала? Тогда наш торрент специально для вас. Rutor.in неофициальное зеркало rutor. В случае если у Вас заблокирован rutor или вдруг Вы не можете на него зайти, то Вы без труда сможете скачать бесплатно и без рекламы последние новинки кино, игр, сериалов и прочего у нас, на Rutor.in. Не нужно использовать прокси, чтобы зайти на рутор, достаточно воспользоваться нашим ресурсом. Все новые фильмы, игры, сериалы, книги и музыка за 2013 и 2014 годы через торрент бесплатно. Скачивайте фильмы в хорошем качестве, игры для пк, xbox, playstation без регистрации. У нас вы найдете новые Зарубежные сериалы и Русские сериалы 2013, 2014, 2015 годов. Оставайтесь с нами, качайте любимые фильмы, игры, сериалы, книги и музыку.
cron