img image001 image001 image001 image001 image001 image001 image001 image001 image001 image001 image001 image001 image001 image001 image001

Planets Sun Sun Sun
Статистика раздачи
Автор: Nickolas3434 | Размер: 746.13 МБ | Добавлен: 01 дек 2014
Раздают: 907    Качают: 24
Скачать торрент
Скачать торрент
Описание торрента

СообщениеДобавлено: 01 дек 2014 

Информация о фильме
Оригинальное название: Звёзды светят всем
Год выхода: 2014
Жанр: Мелодрама, драма
Режиссёр: Александр Кананович
В ролях: Яна Шивкова (Николаева), Алексей Шутов, Андрей Карако, Александр Цуркан, Марина Москвина, Илья Капанец, Руслан Чернецкий, Олеся Пуховая
О фильме: Маша - молодая, красивая и богатая. Она замужем за Игорем, владельцем солидного банка. В семье растет сын Костик. Одним словом, жизнь удалась. Но все меняется в одночасье, когда муж Игорь попадает в тюрьму за махинации. Кроме того, выясняется, что у него была любовница, которая и «сдала» Игоря правоохранительным органам… Не в силах простить мужу измену, Маша подает на развод. Все имущество семьи конфискуют. Маша вынуждена вернуться в свой родной городок, где осталась родительская «двушка». Только выясняется, что тетка Маши сдала квартиру ее бывшему однокласснику, автослесарю Петру, с которым у Маши когда-то был роман, и которого она бросила ради возможностей столицы. Пётр - человек, которого Маше хочется видеть меньше всего, но приходится жить с ним под одной крышей. Похоже, что у судьбы на Машу и Петра есть особые планы.

Выпущено: Россия, ООО "Тесей Продакшн", "Медиапрофсоюз"
Продолжительность: 01:39:06
Перевод: Не требуется
Файл
Качество: HDTVRip [Исходник: HDTV (1080i)]
Видео: XviD, 656x368 (16:9), 915 Кбит/с, 25 кадр/с
Аудио: Русский, MP3, 48000 Гц, 128 Кбит/с, 2 канала (Стерео)

General
Complete name : Zvezdy.svetyat.vsem.2014.HDTVRip.745MB.avi
Format : AVI
Format/Info : Audio Video Interleave
File size : 746 MiB
Duration : 1h 39mn
Overall bit rate : 1 052 Kbps
Writing application : VirtualDubMod 1.5.10.3 (build 2550/release)
Writing library : VirtualDubMod build 2550/release
Copyright : rip by ivandubskoj
Video
ID : 0
Format : MPEG-4 Visual
Format profile : Advanced Simple@L5
Format settings, BVOP : 2
Format settings, QPel : No
Format settings, GMC : No warppoints
Format settings, Matrix : Custom
Codec ID : XVID
Codec ID/Hint : XviD
Duration : 1h 39mn
Bit rate : 915 Kbps
Width : 656 pixels
Height : 368 pixels
Display aspect ratio : 16:9
Frame rate : 25.000 fps
Color space : YUV
Chroma subsampling : 4:2:0
Bit depth : 8 bits
Scan type : Progressive
Compression mode : Lossy
Bits/(Pixel*Frame) : 0.152
Stream size : 648 MiB (87%)
Writing library : XviD 73
Audio
ID : 1
Format : MPEG Audio
Format version : Version 1
Format profile : Layer 3
Codec ID : 55
Codec ID/Hint : MP3
Duration : 1h 39mn
Bit rate mode : Constant
Bit rate : 128 Kbps
Channel(s) : 2 channels
Sampling rate : 48.0 KHz
Compression mode : Lossy
Stream size : 90.7 MiB (12%)
Alignment : Aligned on interleaves
Interleave, duration : 40 ms (1.00 video frame)
Interleave, preload duration : 504 ms
Writing library : LAME3.99r
Encoding settings : -m s -V 4 -q 0 -lowpass 17 -b 128



Автор рипа - ivandubskoj



   Похожие торренты   Торрент   Размер 
В этой теме нет новых непрочитанных сообщений. Звезды светят всем (2014) HDTVRip от Files-x

973 | 58

1.37 ГБ

В этой теме нет новых непрочитанных сообщений. Звезды светят всем (2014) HDTVRip 720p от MediaClub

197 | 13

2.43 ГБ

В этой теме нет новых непрочитанных сообщений. Звезды светят всем (2014) HDTV 1080i от MediaClub

666 | 24

5.97 ГБ

В этой теме нет новых непрочитанных сообщений. Славянский Базар 2014. Светят звёзды - Надежда Кадышева и Золотое Кольцо (2014) DVB от AND03AND

19 | 6

1.49 ГБ

В этой теме нет новых непрочитанных сообщений. Надежда Кадышева и Золотое кольцо - Светят звёзды (2013) MP3

517 | 17

81.99 МБ

В этой теме нет новых непрочитанных сообщений. Во всем виноват посыльный / Во всем виноват портье / Blame It on the Bellboy (1992) DVD5

0 | 4

3.74 ГБ

В этой теме нет новых непрочитанных сообщений. Лермонтов (2014) HDTVRip от ivandubskoj

297 | 18

745.16 МБ




Вы не можете начинать темы
Вы не можете отвечать на сообщения
Вы не можете редактировать свои сообщения
Вы не можете удалять свои сообщения
Вы не можете добавлять вложения

Перейти:  
Для Мосгорсуда, Роскомнадзора и рекламодателей: mosgorsud-torrent[собачка]yandex.ru
 Вход
ppkBB3cker v.2 © 2008-2014 @ PPK
[ Time : 0.034s | 17 Queries | GZIP : Off ]

Торрент трекер RUTOR.IN, Не можете зайти на rutor.org? Какой новый адрес рутор? Какое зеркало рутор? Не работает rutor.org и зеркала? Тогда наш торрент специально для вас. Rutor.in неофициальное зеркало rutor. В случае если у Вас заблокирован rutor или вдруг Вы не можете на него зайти, то Вы без труда сможете скачать бесплатно и без рекламы последние новинки кино, игр, сериалов и прочего у нас, на Rutor.in. Не нужно использовать прокси, чтобы зайти на рутор, достаточно воспользоваться нашим ресурсом. Все новые фильмы, игры, сериалы, книги и музыка за 2013 и 2014 годы через торрент бесплатно. Скачивайте фильмы в хорошем качестве, игры для пк, xbox, playstation без регистрации. У нас вы найдете новые Зарубежные сериалы и Русские сериалы 2013, 2014, 2015 годов. Оставайтесь с нами, качайте любимые фильмы, игры, сериалы, книги и музыку.