img image001 image001 image001 image001 image001 image001 image001 image001 image001 image001 image001 image001 image001 image001 image001

Planets Sun Sun Sun
Статистика раздачи
Автор: Nickolas3434 | Размер: 1.46 ГБ | Добавлен: 03 дек 2014
Раздают: 34    Качают: 11
Скачать торрент
Скачать торрент
Описание торрента

СообщениеДобавлено: 03 дек 2014 

Страна: СССР
Производство: Беларусьфильм

Жанр: драма, военный
Год выпуска: 1959
Продолжительность: 01:26:15

Перевод: не требуется
Оригинальная аудиодорожка: русский
Cубтитры: нет

Режиссер: Лев Голуб

В ролях:
Евгений Григорьев, Елена Егорова, Алевтина Румянцева, Нина Гребешкова, Владимир Дорофеев (...лесник), Анна Каменкова, Николай Бармин (...батька Панас), Владимир Гуськов, Виктор Уральский, Константин Барташевич...

Описание:
В скрытый от немцев лесной домик, где живут только лесник с внуком, хозяин приносит четырехлетнюю девочку, не подозревая о том, что она — дочь легендарного партизана «батьки Панаса». Позже наивный старик раскроет гестаповцам местонахождение девочки. Поняв свою ошибку, он сделает все возможное, чтобы спасти детей…





Исходник: DVB
Тип релиза: SATRip
Контейнер: AVI

Видео: 672x512 (4:3), 25 fps, XviD ~ 2217 kbps avg, 0.258 bit/pixel
Аудио: 48 kHz, Dolby Digital AC3 2.0, 192 kbps

Раздача от:
Общее
Полное имя : Devochka.ishhet.otca.1959.SATRip_[New-team]_by_AVP_Studio.avi
Формат : AVI
Формат/Информация : Audio Video Interleave
Размер файла : 1,46 Гбайт
Продолжительность : 1 ч. 26 м.
Общий поток : 2418 Кбит/сек
Программа кодирования : VirtualDubModRus 1.5.10.2 (build 2542/release)
Библиотека кодирования : VirtualDubMod build 2542/release

Видео
Идентификатор : 0
Формат : MPEG-4 Visual
Профиль формата : Advanced Simple@L5
Параметр BVOP формата : 1
Параметр QPel формата : Нет
Параметр GMC формата : Без точки перехода
Параметр матрицы формата : Выборочная
Идентификатор кодека : XVID
Идентификатор кодека/Подсказка : XviD
Продолжительность : 1 ч. 26 м.
Битрейт : 2217 Кбит/сек
Ширина : 672 пикселя
Высота : 512 пикселей
Соотношение сторон : 4:3
Частота кадров : 25,000 кадров/сек
Цветовое пространство : YUV
Субдискретизация насыщенности : 4:2:0
Битовая глубина : 8 бит
Тип развёртки : Прогрессивная
Метод сжатия : С потерями
Бит/(Пиксели*Кадры) : 0.258
Размер потока : 1,34 Гбайт (92%)
Библиотека кодирования : XviD 73

Аудио
Идентификатор : 1
Формат : AC-3
Формат/Информация : Audio Coding 3
Расширение режима : CM (complete main)
Параметр Endianness формата : Big
Идентификатор кодека : 2000
Продолжительность : 1 ч. 26 м.
Вид битрейта : Постоянный
Битрейт : 192 Кбит/сек
Каналы : 2 канала
Расположение каналов : Front: L R
Частота : 48,0 КГц
Битовая глубина : 16 бит
Метод сжатия : С потерями
Размер потока : 118 Мбайт (8%)
Выравнивание : Разделение по промежуткам
Продолжительность промежутка : 40 мс. (1,00 видеокадр)
Время предзагрузки промежутка : 500 мс





   Похожие торренты   Торрент   Размер 
В этой теме нет новых непрочитанных сообщений. Девочка ищет отца (1959) SATRip от New-Team

15 | 9

745.01 МБ

В этой теме нет новых непрочитанных сообщений. Девочка ищет отца (1959) SATRip-AVC от New-Team

55 | 13

1.46 ГБ

В этой теме нет новых непрочитанных сообщений. Девочка ищет отца (1959) SATRip

249 | 17

699.94 МБ

В этой теме нет новых непрочитанных сообщений. Девочка и крокодил (1956) SATRip-AVC от New-Team

39 | 6

744.68 МБ

В этой теме нет новых непрочитанных сообщений. Девочка и крокодил (1956) SATRip от New-Team

8 | 7

741.77 МБ

В этой теме нет новых непрочитанных сообщений. Пан Анатоль ищет миллион / Pan Anatol szuka miliona (1958) SATRip | A

1 | 1

1.01 ГБ

В этой теме нет новых непрочитанных сообщений. OST - Дом моего отца (В доме отца) / Casa De Mi Padre [Original Soundtrack] (2012) MP3

1 | 1

104.43 МБ




Вы не можете начинать темы
Вы не можете отвечать на сообщения
Вы не можете редактировать свои сообщения
Вы не можете удалять свои сообщения
Вы не можете добавлять вложения

Перейти:  
Для Мосгорсуда, Роскомнадзора и рекламодателей: mosgorsud-torrent[собачка]yandex.ru
 Вход
ppkBB3cker v.2 © 2008-2014 @ PPK
[ Time : 0.051s | 15 Queries | GZIP : On ]

Торрент трекер RUTOR.IN, Не можете зайти на rutor.org? Какой новый адрес рутор? Какое зеркало рутор? Не работает rutor.org и зеркала? Тогда наш торрент специально для вас. Rutor.in неофициальное зеркало rutor. В случае если у Вас заблокирован rutor или вдруг Вы не можете на него зайти, то Вы без труда сможете скачать бесплатно и без рекламы последние новинки кино, игр, сериалов и прочего у нас, на Rutor.in. Не нужно использовать прокси, чтобы зайти на рутор, достаточно воспользоваться нашим ресурсом. Все новые фильмы, игры, сериалы, книги и музыка за 2013 и 2014 годы через торрент бесплатно. Скачивайте фильмы в хорошем качестве, игры для пк, xbox, playstation без регистрации. У нас вы найдете новые Зарубежные сериалы и Русские сериалы 2013, 2014, 2015 годов. Оставайтесь с нами, качайте любимые фильмы, игры, сериалы, книги и музыку.