img image001 image001 image001 image001 image001 image001 image001 image001 image001 image001 image001 image001 image001 image001 image001

Planets Sun Sun Sun
Статистика раздачи
Автор: Nickolas3434 | Размер: 1.46 ГБ | Добавлен: 03 дек 2014
Раздают: 55    Качают: 13
Скачать торрент
Скачать торрент
Описание торрента

СообщениеДобавлено: 03 дек 2014 

Страна: СССР
Производство: Беларусьфильм

Жанр: драма, военный
Год выпуска: 1959
Продолжительность: 01:26:15

Перевод: не требуется
Оригинальная аудиодорожка: русский
Cубтитры: нет

Режиссер: Лев Голуб

В ролях:
Евгений Григорьев, Елена Егорова, Алевтина Румянцева, Нина Гребешкова, Владимир Дорофеев (...лесник), Анна Каменкова, Николай Бармин (...батька Панас), Владимир Гуськов, Виктор Уральский, Константин Барташевич...

Описание:
В скрытый от немцев лесной домик, где живут только лесник с внуком, хозяин приносит четырехлетнюю девочку, не подозревая о том, что она — дочь легендарного партизана «батьки Панаса». Позже наивный старик раскроет гестаповцам местонахождение девочки. Поняв свою ошибку, он сделает все возможное, чтобы спасти детей…





Исходник: DVB
Тип релиза: SATRip-AVC
Контейнер: MKV

Видео: 672->738x554 (4:3), 25 fps, H264 ~ 2222 kbps avg, 0.239 bit/pixel
Аудио: 48 kHz, Dolby Digital AC3 2.0, 192 kbps

Раздача от:
Общее
Полное имя : Devochka.ishhet.otca.1959.SATRip-AVC_[New-team]_by_AVP_Studio.mkv
Формат : Matroska
Версия формата : Version 2
Размер файла : 1,46 Гбайт
Продолжительность : 1 ч. 26 м.
Общий поток : 2416 Кбит/сек
Дата кодирования : UTC 2014-11-30 20:01:53
Программа кодирования : mkvmerge v6.1.0 ('Old Devil') built on Mar 4 2013 09:10:42
Библиотека кодирования : libebml v1.3.0 + libmatroska v1.4.0

Видео
Идентификатор : 1
Формат : AVC
Формат/Информация : Advanced Video Codec
Профиль формата : High@L4.1
Параметр CABAC формата : Да
Параметр ReFrames формата : 8 кадров
Идентификатор кодека : V_MPEG4/ISO/AVC
Продолжительность : 1 ч. 26 м.
Битрейт : 2222 Кбит/сек
Ширина : 672 пикселя
Высота : 554 пикселя
Соотношение сторон : 4:3
Режим частоты кадров : Постоянный
Частота кадров : 25,000 кадров/сек
Цветовое пространство : YUV
Субдискретизация насыщенности : 4:2:0
Битовая глубина : 8 бит
Тип развёртки : Прогрессивная
Бит/(Пиксели*Кадры) : 0.239
Размер потока : 1,31 Гбайт (90%)
Библиотека кодирования : x264 core 138 r2356 a1d3d17
Настройки программы : cabac=1 / ref=8 / deblock=1:-3:-2 / analyse=0x3:0x113 / me=umh / subme=10 / psy=1 / psy_rd=1.00:0.05 / mixed_ref=1 / me_range=32 / chroma_me=1 / trellis=2 / 8x8dct=1 / cqm=0 / deadzone=21,11 / fast_pskip=1 / chroma_qp_offset=-3 / threads=6 / lookahead_threads=1 / sliced_threads=0 / nr=0 / decimate=0 / interlaced=0 / bluray_compat=0 / constrained_intra=0 / bframes=8 / b_pyramid=2 / b_adapt=2 / b_bias=0 / direct=3 / weightb=1 / open_gop=0 / weightp=2 / keyint=250 / keyint_min=25 / scenecut=40 / intra_refresh=0 / rc_lookahead=40 / rc=2pass / mbtree=1 / bitrate=2222 / ratetol=1.0 / qcomp=0.60 / qpmin=0 / qpmax=69 / qpstep=4 / cplxblur=20.0 / qblur=0.5 / ip_ratio=1.40 / aq=1:1.00
Default : Да
Forced : Нет

Аудио
Идентификатор : 2
Формат : AC-3
Формат/Информация : Audio Coding 3
Расширение режима : CM (complete main)
Параметр Endianness формата : Big
Идентификатор кодека : A_AC3
Продолжительность : 1 ч. 26 м.
Вид битрейта : Постоянный
Битрейт : 192 Кбит/сек
Каналы : 2 канала
Расположение каналов : Front: L R
Частота : 48,0 КГц
Битовая глубина : 16 бит
Метод сжатия : С потерями
Размер потока : 118 Мбайт (8%)
Default : Да
Forced : Нет





   Похожие торренты   Торрент   Размер 
В этой теме нет новых непрочитанных сообщений. Девочка ищет отца (1959) SATRip от New-Team

34 | 11

1.46 ГБ

В этой теме нет новых непрочитанных сообщений. Девочка ищет отца (1959) SATRip от New-Team

15 | 9

745.01 МБ

В этой теме нет новых непрочитанных сообщений. Девочка ищет отца (1959) SATRip

249 | 17

699.94 МБ

В этой теме нет новых непрочитанных сообщений. Девочка и крокодил (1956) SATRip-AVC от New-Team

32 | 7

744.68 МБ

В этой теме нет новых непрочитанных сообщений. Девочка и крокодил (1956) SATRip от New-Team

7 | 5

741.77 МБ

В этой теме нет новых непрочитанных сообщений. Пан Анатоль ищет миллион / Pan Anatol szuka miliona (1958) SATRip | A

1 | 1

1.01 ГБ

В этой теме нет новых непрочитанных сообщений. OST - Дом моего отца (В доме отца) / Casa De Mi Padre [Original Soundtrack] (2012) MP3

1 | 1

104.43 МБ




Вы не можете начинать темы
Вы не можете отвечать на сообщения
Вы не можете редактировать свои сообщения
Вы не можете удалять свои сообщения
Вы не можете добавлять вложения

Перейти:  
Для Мосгорсуда, Роскомнадзора и рекламодателей: mosgorsud-torrent[собачка]yandex.ru
 Вход
ppkBB3cker v.2 © 2008-2014 @ PPK
[ Time : 0.022s | 15 Queries | GZIP : Off ]

Торрент трекер RUTOR.IN, Не можете зайти на rutor.org? Какой новый адрес рутор? Какое зеркало рутор? Не работает rutor.org и зеркала? Тогда наш торрент специально для вас. Rutor.in неофициальное зеркало rutor. В случае если у Вас заблокирован rutor или вдруг Вы не можете на него зайти, то Вы без труда сможете скачать бесплатно и без рекламы последние новинки кино, игр, сериалов и прочего у нас, на Rutor.in. Не нужно использовать прокси, чтобы зайти на рутор, достаточно воспользоваться нашим ресурсом. Все новые фильмы, игры, сериалы, книги и музыка за 2013 и 2014 годы через торрент бесплатно. Скачивайте фильмы в хорошем качестве, игры для пк, xbox, playstation без регистрации. У нас вы найдете новые Зарубежные сериалы и Русские сериалы 2013, 2014, 2015 годов. Оставайтесь с нами, качайте любимые фильмы, игры, сериалы, книги и музыку.