img image001 image001 image001 image001 image001 image001 image001 image001 image001 image001 image001 image001 image001 image001 image001

Planets Sun Sun Sun
Статистика раздачи
Автор: Nickolas3434 | Размер: 1.46 ГБ | Добавлен: 03 дек 2014
Раздают: 284    Качают: 16
Скачать торрент
Скачать торрент
Описание торрента

СообщениеДобавлено: 03 дек 2014 

Информация о фильме
Название: Ты будешь моей
Год выхода: 2013
Жанр: Мелодрама, драма
Режиссёр: Анатолий Матешко
В ролях: Наталья Николаева, Тимофей Каратаев, Кирилл Запорожский, Татьяна Зеленская, Роман Лях, Алена Узлюк, Борис Георгиевский

О фильме:
Если ты молода и красива, если ты вызываешь восхищение мужчин и зависть женщин, если за тобой ухаживают два самых красивых парня в институте, легко поддаться иллюзии, что этот мир создан для твоего счастья. Но рано или поздно приходится делать выбор. Что важнее - яркие жесты или тихая преданность? Сила или заботливость? Настойчивость или умение прощать?



Страна: Россия, Украина
Студия: Кинокомпания "УПС"
Продолжительность: 01:29:02
Перевод: Не требуется

Файл
Кодек: XviD
Качество: HDTVRip [Исходник HDTV (1080i)]
Видео: XviD, 720x400 (16:9), 2149 Кбит/с, 25 кадр/с
Аудио: Русский, Dolby AC3, 48000 Гц, 192 Кбит/с, 2 канала (Стерео)
Субтитры: Нет



General
Complete name : Ty.budesh.moej.2013.HDTVRip.avi
Format : AVI
Format/Info : Audio Video Interleave
File size : 1.46 GiB
Duration : 1h 29mn
Overall bit rate : 2 349 Kbps
Movie name : Ты будешь моей (2013) HDTVRip
Genre : Мелодрама, драма
Recorded date : 01.12.2014
Writing application : VirtualDubMod 1.5.10.3 (build 2550/release)
Writing library : VirtualDubMod build 2550/release
Copyright : rip by ivandubskoj

Video
ID : 0
Format : MPEG-4 Visual
Format profile : Advanced Simple@L5
Format settings, BVOP : 1
Format settings, QPel : No
Format settings, GMC : No warppoints
Format settings, Matrix : Default (MPEG)
Codec ID : XVID
Codec ID/Hint : XviD
Duration : 1h 29mn
Bit rate : 2 149 Kbps
Width : 720 pixels
Height : 400 pixels
Display aspect ratio : 16:9
Frame rate : 25.000 fps
Color space : YUV
Chroma subsampling : 4:2:0
Bit depth : 8 bits
Scan type : Progressive
Compression mode : Lossy
Bits/(Pixel*Frame) : 0.298
Stream size : 1.34 GiB (91%)
Writing library : XviD 73

Audio
ID : 1
Format : AC-3
Format/Info : Audio Coding 3
Mode extension : CM (complete main)
Codec ID : 2000
Duration : 1h 29mn
Bit rate mode : Constant
Bit rate : 192 Kbps
Channel(s) : 2 channels
Channel positions : Front: L R
Sampling rate : 48.0 KHz
Bit depth : 16 bits
Compression mode : Lossy
Stream size : 122 MiB (8%)
Alignment : Split accross interleaves
Interleave, duration : 64 ms (1.60 video frames)
Interleave, preload duration : 500 ms
Title : Russian



Автор рипа - ivandubskoj



   Похожие торренты   Торрент   Размер 
В этой теме нет новых непрочитанных сообщений. Ты будешь моей (2013) HDTVRip от ivandubskoj

86 | 6

745.03 МБ

В этой теме нет новых непрочитанных сообщений. Ты будешь моей (2013) HDTVRip 720p от MediaClub

124 | 23

2.43 ГБ

В этой теме нет новых непрочитанных сообщений. Ты будешь моей (2013) SATRip

223 | 13

1.22 ГБ

В этой теме нет новых непрочитанных сообщений. Ты будешь моей (2013) HDTV 1080p от MediaClub

96 | 73

4.01 ГБ

В этой теме нет новых непрочитанных сообщений. Мужчина в моей голове (2009) DVDRip от ivandubskoj

196 | 18

1.46 ГБ

В этой теме нет новых непрочитанных сообщений. Я думал, ты будешь всегда (2013) WEB-DLRip-AVC от ExKinoRay

222 | 15

1.37 ГБ

В этой теме нет новых непрочитанных сообщений. Я думал, ты будешь всегда (2013) WEB-DL 720p от ExKinoRay

243 | 36

1.4 ГБ




Вы не можете начинать темы
Вы не можете отвечать на сообщения
Вы не можете редактировать свои сообщения
Вы не можете удалять свои сообщения
Вы не можете добавлять вложения

Перейти:  
Для Мосгорсуда, Роскомнадзора и рекламодателей: mosgorsud-torrent[собачка]yandex.ru
 Вход
ppkBB3cker v.2 © 2008-2014 @ PPK
[ Time : 0.050s | 18 Queries | GZIP : Off ]

cron