img image001 image001 image001 image001 image001 image001 image001 image001 image001 image001 image001 image001 image001 image001 image001 image001

Planets Sun Sun Sun
Статистика раздачи
Автор: Nickolas3434 | Размер: 1.79 ГБ | Добавлен: 03 дек 2014
Раздают: 87    Качают: 12
Скачать торрент
Скачать торрент
Описание торрента

СообщениеДобавлено: 03 дек 2014 

Информация о фильме
Оригинальное название: Совсем не простая история
Год выхода: 2013
Жанр: Драма, комедия
Режиссер: Фёдор Попов
В ролях: Даниил Спиваковский, Алексей Ионов, Егор Баринов, Юлия Йенч, Евгения Крегжде, Дмитрий Калистратов, Анастасия Привалова, Виталий Отинов, Милена Давыдова, Роман Сеньков

О фильме:
В основе сюжета фильма жизненные пути двух людей — взрослого человека и подростка, пересекаются в тот момент, когда оба они стоят на краю жизни. Подросток случайно спасает жизнь взрослого. Взрослый видит, что парень, спасший его, почти след в след шагает по той же тропинке, которая его самого чуть не привела к гибели…


Страна: Россия
Студия: МК-ЦБ, Студия Стелла, Такт
Продолжительность: 01:48:52
Язык: Русский
Файл
Качество: DVB
Видео: MPEG-2, 2107 Кбит/с, 720x576@785x576
Звук: (MP2, 2 ch, 128 Кбит/с)

Семпл


Общее
Идентификатор : 19 (0x13)
Полное имя : Sovsem.ne.prostaja.istorija.2013.DVB.MediaClub.ts
Формат : MPEG-TS
Размер файла : 1,79 Гбайт
Продолжительность : 1 ч. 48 м.
Режим общего битрейта : Переменный
Общий поток : 2352 Кбит/сек

Видео
Идентификатор : 204 (0xCC)
Идентификатор меню : 19104 (0x4AA0)
Формат : AVC
Формат/Информация : Advanced Video Codec
Профиль формата : High@L3.0
Параметр CABAC формата : Да
Параметр ReFrames формата : 4 кадра
Идентификатор кодека : 27
Продолжительность : 1 ч. 48 м.
Битрейт : 2107 Кбит/сек
Ширина : 720 пикселей
Высота : 576 пикселей
Соотношение сторон : 4:3
Частота кадров : 25,000 кадров/сек
Стандарт вещания : Component
Цветовое пространство : YUV
Субдискретизация насыщенности : 4:2:0
Битовая глубина : 8 бит
Тип развёртки : Чересстрочная
Порядок развёртки : Верхнее поле первое
Бит/(Пиксели*Кадры) : 0.203
Размер потока : 1,60 Гбайт (90%)
Основные цвета : BT.601 PAL
Характеристики трансфера : BT.470 System B, BT.470 System G
Коэффициенты матрицы : BT.601

Аудио
Идентификатор : 304 (0x130)
Идентификатор меню : 19104 (0x4AA0)
Формат : MPEG Audio
Версия формата : Version 1
Профиль формата : Layer 2
Идентификатор кодека : 4
Продолжительность : 1 ч. 48 м.
Вид битрейта : Постоянный
Битрейт : 128 Кбит/сек
Каналы : 2 канала
Частота : 48,0 КГц
Метод сжатия : С потерями
Задержка видео : -976 мс.
Размер потока : 99,7 Мбайт (5%)
Язык : Russian
Язык, дополнительно : Clean effects

Меню
Идентификатор : 1904 (0x770)
Идентификатор меню : 19104 (0x4AA0)
Продолжительность : 1 ч. 48 м.
Список : 204 (0xCC) (AVC) / 304 (0x130) (MPEG Audio, Russian)
Язык : / Russian


Релиз от:



   Похожие торренты   Торрент   Размер 
В этой теме нет новых непрочитанных сообщений. Простая история (2016) HDTV 1080i от MediaClub

8 | 0

4.83 ГБ

В этой теме нет новых непрочитанных сообщений. Совсем не простая история (2013) SATRip

415 | 25

1.37 ГБ

В этой теме нет новых непрочитанных сообщений. Совсем не простая история (2013) WEB-DLRip от ImperiaFilm

2 | 0

746.42 МБ

В этой теме нет новых непрочитанных сообщений. Совсем не простая история (2013) WEB-DLRip от MegaPeer

15 | 0

1.46 ГБ

В этой теме нет новых непрочитанных сообщений. Совсем не простая история (2013) SATRip от ivandubskoj

117 | 5

745.93 МБ

В этой теме нет новых непрочитанных сообщений. Совсем не простая история (2013) WEB-DLRip 720p от MegaPeer

7 | 0

2.18 ГБ

В этой теме нет новых непрочитанных сообщений. Простая история (2016) WEB-DLRip

9969 | 644

1.37 ГБ




Вы не можете начинать темы
Вы не можете отвечать на сообщения
Вы не можете редактировать свои сообщения
Вы не можете удалять свои сообщения
Вы не можете добавлять вложения

Перейти:  
 Вход
ppkBB3cker v.2 © 2008-2014 @ PPK
[ Time : 0.029s | 16 Queries | GZIP : Off ]

cron