img image001 image001 image001 image001 image001 image001 image001 image001 image001 image001 image001 image001 image001 image001 image001

Planets Sun Sun Sun
Статистика раздачи
Автор: Nickolas3434 | Размер: 1.46 ГБ | Добавлен: 03 дек 2014
Раздают: 27    Качают: 6
Скачать торрент
Скачать торрент
Описание торрента

СообщениеДобавлено: 03 дек 2014 

«Даже заяц иногда может стать волком...»




Страна: Россия / VOX VIDEO

Жанр: комедия, детектив
Год выпуска: 2007
Продолжительность: 00:51:37 + 00:51:46

Перевод: Не требуется
Cубтитры: нет
Оригинальная аудиодорожка: русский

Режиссер: Евгений Аксенов

В ролях: Илья Олейников, Дмитрий Барков, Ольга Арикова, Станислав Никольский, Александр Тютрюмов, Сергей Кошонин, Сергей Лосев, Ляля Миропольская, Семён Стругачев, Сергей Мурзин...

Описание: В городе трех революций организована новая партия — «Партия Русаков», чьим символом является истинно русский зверек заяц-русак. Во время партийного митинга на главу партии совершено покушение. Покушение оказывается двойным — машина была заминирована заранее. Почему именно на этого человека совершено покушение? За расследование берется детективное агентство «Леон». Поиски приводят к незаметному человеку. Но бывают ситуации, когда волк должен бояться доведенного до отчаяния зайца…



Качество: DVDRip / DVD5 R5 от «Компания АТК Студио»
Формат: AVI

Видео: 704x384 (1.83:1), 25.000 fps, XviD, ~1816 kbps avg, 0.269 bit/pix
Аудио: 48 kHz, Dolby AC3, 2 ch, 192 kbps, русский

Раздача от:
General
Format : AVI
Format/Info : Audio Video Interleave
File size : 745 MiB
Duration : 51mn 37s
Overall bit rate : 2 018 Kbps
Writing application : VirtualDubMod 1.5.10.3 | www.virtualdub-fr.org || (build 2550/release)
Writing library : VirtualDubMod build 2550/release

Video
ID : 0
Format : MPEG-4 Visual
Format profile : Advanced Simple@L5
Format settings, BVOP : 1
Format settings, QPel : No
Format settings, GMC : No warppoints
Format settings, Matrix : Custom
Codec ID : XVID
Codec ID/Hint : XviD
Duration : 51mn 37s
Bit rate : 1 816 Kbps
Width : 704 pixels
Height : 384 pixels
Display aspect ratio : 1.85:1
Frame rate : 25.000 fps
Color space : YUV
Chroma subsampling : 4:2:0
Bit depth : 8 bits
Scan type : Progressive
Compression mode : Lossy
Bits/(Pixel*Frame) : 0.269
Stream size : 670 MiB (90%)
Writing library : XviD 73

Audio
ID : 1
Format : AC-3
Format/Info : Audio Coding 3
Mode extension : CM (complete main)
Format settings, Endianness : Big
Codec ID : 2000
Duration : 51mn 36s
Bit rate mode : Constant
Bit rate : 192 Kbps
Channel(s) : 2 channels
Channel positions : Front: L R
Sampling rate : 48.0 KHz
Bit depth : 16 bits
Compression mode : Lossy
Stream size : 70.9 MiB (10%)
Alignment : Split accross interleaves
Interleave, duration : 40 ms (1.00 video frame)
Interleave, preload duration : 500 ms





   Похожие торренты   Торрент   Размер 
В этой теме нет новых непрочитанных сообщений. Закон зайца (2007) DVDRip-AVC от New-Team

67 | 7

1.46 ГБ

В этой теме нет новых непрочитанных сообщений. Закон зайца (2007) DVD9 от New-Team | Лицензия

21 | 8

5.58 ГБ

В этой теме нет новых непрочитанных сообщений. Закон зайца [01-02 из 2] (2007) DVDRip

1 | 2

1.36 ГБ

В этой теме нет новых непрочитанных сообщений. Закон мышеловки [1-8 из 8] (2007) DVDRip--Generalfilm

9 | 6

3.92 ГБ

В этой теме нет новых непрочитанных сообщений. Закон Божий [01-106 серия] (2007) DVDRip

3 | 9

12.92 ГБ

В этой теме нет новых непрочитанных сообщений. Закон Божий [107-266 серия] (2007) DVDRip

0 | 8

18 ГБ

В этой теме нет новых непрочитанных сообщений. Приключения волка и зайца (2008) DVDRip от NotForYou

10 | 4

905.94 МБ




Вы не можете начинать темы
Вы не можете отвечать на сообщения
Вы не можете редактировать свои сообщения
Вы не можете удалять свои сообщения
Вы не можете добавлять вложения

Перейти:  
Для Мосгорсуда, Роскомнадзора и рекламодателей: mosgorsud-torrent[собачка]yandex.ru
 Вход
ppkBB3cker v.2 © 2008-2014 @ PPK
[ Time : 0.039s | 20 Queries | GZIP : Off ]

cron