img image001 image001 image001 image001 image001 image001 image001 image001 image001 image001 image001 image001 image001 image001 image001

Planets Sun Sun Sun
Статистика раздачи
Автор: Nickolas3434 | Размер: 745.02 МБ | Добавлен: 03 дек 2014
Раздают: 18    Качают: 4
Скачать торрент
Скачать торрент
Описание торрента

СообщениеДобавлено: 03 дек 2014 

Страна: СССР
Производство: Тбилисская киностудия

Жанр: драма, военный
Год выпуска: 1944
Продолжительность: 01:12:20

Перевод: не требуется
Оригинальная аудиодорожка: русский
Cубтитры: нет

Режиссер: Александр Мачерет

В ролях:
Б.Андреев, Л.Емельянцева, А.Сова, Ф.Ищенко, Б.Голосков, Б.Вяземский, В.Грибков, А.Смиранин, Г.Клеринг, Ю.Куровский...

Описание:
Степан Полосухин — потомственный черноморец, сын керченского рыбака — уходит на флот. Начинается Великая Отечественная война и сторожевой катер, на котором рулевым плавает Степан, получает первое задание — произвести разведку огневых точек врага. Выдержав первое испытание, Полосухин затем участвует в тяжелых боях на Черноморском побережье…





Исходник: DVD5 R5
Тип релиза: DVDRip
Контейнер: AVI

Видео: 688x512 (4:3), 25 fps, XviD ~ 1302 kbps avg, 0.148 bit/pixel
Аудио: 48 kHz, MP3 2.0, 128 kbps

Раздача от:
Общее
Полное имя : Ja–chernomorec.1944.DVDRip-745_[New-team]_by_AVP_Studio.avi
Формат : AVI
Формат/Информация : Audio Video Interleave
Размер файла : 745 Мбайт
Продолжительность : 1 ч. 12 м.
Общий поток : 1440 Кбит/сек
Программа кодирования : VirtualDubModRus 1.5.10.2 (build 2542/release)
Библиотека кодирования : VirtualDubMod build 2542/release

Видео
Идентификатор : 0
Формат : MPEG-4 Visual
Профиль формата : Advanced Simple@L5
Параметр BVOP формата : 1
Параметр QPel формата : Нет
Параметр GMC формата : Без точки перехода
Параметр матрицы формата : Выборочная
Идентификатор кодека : XVID
Идентификатор кодека/Подсказка : XviD
Продолжительность : 1 ч. 12 м.
Битрейт : 1302 Кбит/сек
Ширина : 688 пикселей
Высота : 512 пикселей
Соотношение сторон : 4:3
Частота кадров : 25,000 кадров/сек
Цветовое пространство : YUV
Субдискретизация насыщенности : 4:2:0
Битовая глубина : 8 бит
Тип развёртки : Прогрессивная
Метод сжатия : С потерями
Бит/(Пиксели*Кадры) : 0.148
Размер потока : 674 Мбайт (90%)
Библиотека кодирования : XviD 73

Аудио
Идентификатор : 1
Формат : MPEG Audio
Версия формата : Version 1
Профиль формата : Layer 3
Идентификатор кодека : 55
Идентификатор кодека/Подсказка : MP3
Продолжительность : 1 ч. 12 м.
Вид битрейта : Постоянный
Битрейт : 128 Кбит/сек
Каналы : 2 канала
Частота : 48,0 КГц
Метод сжатия : С потерями
Размер потока : 66,2 Мбайт (9%)
Выравнивание : Соединение по промежуткам
Продолжительность промежутка : 40 мс. (1,00 видеокадр)
Время предзагрузки промежутка : 504 мс.
Библиотека кодирования : LAME3.99r
Настройки программы : -m s -V 4 -q 2 -lowpass 17 -b 128





   Похожие торренты   Торрент   Размер 
В этой теме нет новых непрочитанных сообщений. Я - черноморец (1944) DVDRip от New-Team

4 | 2

1.09 ГБ

В этой теме нет новых непрочитанных сообщений. Я - черноморец (1944) DVDRip-AVC от New-Team

18 | 5

1.09 ГБ

В этой теме нет новых непрочитанных сообщений. 1944 / 1944 (2015) BDRip-AVC от New-Team | Лицензия

146 | 14

2.18 ГБ

В этой теме нет новых непрочитанных сообщений. 1944 / 1944 (2015) BDRip-AVC от New-Team | Лицензия

1486 | 170

1.46 ГБ

В этой теме нет новых непрочитанных сообщений. Зоя (1944) DVDRip от New-Team

10 | 3

750 МБ

В этой теме нет новых непрочитанных сообщений. Зоя (1944) DVDRip от New-Team

7 | 4

1.09 ГБ

В этой теме нет новых непрочитанных сообщений. Зоя (1944) DVDRip-AVC от New-Team

8 | 3

1.09 ГБ




Вы не можете начинать темы
Вы не можете отвечать на сообщения
Вы не можете редактировать свои сообщения
Вы не можете удалять свои сообщения
Вы не можете добавлять вложения

Перейти:  
Для Мосгорсуда, Роскомнадзора и рекламодателей: mosgorsud-torrent[собачка]yandex.ru
 Вход
ppkBB3cker v.2 © 2008-2014 @ PPK
[ Time : 0.026s | 16 Queries | GZIP : Off ]

cron