img image001 image001 image001 image001 image001 image001 image001 image001 image001 image001 image001 image001 image001 image001 image001

Planets Sun Sun Sun
Статистика раздачи
Автор: Nickolas3434 | Размер: 749.36 МБ | Добавлен: 03 дек 2014
Раздают: 12    Качают: 5
Скачать торрент
Скачать торрент
Описание торрента

СообщениеДобавлено: 03 дек 2014 

Страна: СССР
Производство: Ашхабадская к/ст, Сталинабадская к/ст

Жанр: военный
Год выпуска: 1942
Продолжительность: 00:54:36

Перевод: не требуется
Оригинальная аудиодорожка: русский
Cубтитры: нет

Режиссер: Лев Кулешов

В ролях:
Ю. Ионов, В. Чистякова, Антон Дунайский, Ганс Клеринг, Галина Степанова, Андрей Файт, Сергей Мартинсон, Борис Андреев, Петр Галаджев, В. Пименов, Саша Пупко, Лиля Коваленко, Сережа Сотников...

Описание:
Сборник был создан как продолжение "Боевых киносборников".
За основу взят рассказ Льва Кассиля "У классной доски" об учительнице Ксении Карташовой и ее учениках, которые помогали партизанам во время Великой Отечественной войны. В ткань повествования введена новелла "Левко", которую рассказывает боевой командир (Борис Андреев), о боевом подвиге маленького мальчика по имени Левко...





Исходник: DVD5 R5
Тип релиза: DVDRip
Контейнер: AVI

Видео: 720x544 (4:3), 25 fps, XviD ~ 1725 kbps avg, 0.176 bit/pixel
Аудио: 48 kHz, Dolby Digital AC3 2.0, 192 kbps

Раздача от:
Фильм не вышел на широкий экран.
Документов, запрещающих фильм, разыскать не удалось. Из заключения ГФФ: "Авторы до неправдоподобия преувеличили участие детей в войне".
По воспоминананиям создателей сборника Л.В. Кулешова и А.С. Хохловой: "Фильм был интересен, но в это время "Боевые киносборники", к сожалению, прекратили выпускать, и наша работа так и не увидела экрана."

Общее
Полное имя : Junye.partizany.1942.DVDRip_[New-team]_by_AVP_Studio.avi
Формат : AVI
Формат/Информация : Audio Video Interleave
Размер файла : 749 Мбайт
Продолжительность : 54 м.
Общий поток : 1927 Кбит/сек
Программа кодирования : VirtualDubModRus 1.5.10.2 (build 2542/release)
Библиотека кодирования : VirtualDubMod build 2542/release

Видео
Идентификатор : 0
Формат : MPEG-4 Visual
Профиль формата : Advanced Simple@L5
Параметр BVOP формата : 1
Параметр QPel формата : Нет
Параметр GMC формата : Без точки перехода
Параметр матрицы формата : Выборочная
Идентификатор кодека : XVID
Идентификатор кодека/Подсказка : XviD
Продолжительность : 54 м.
Битрейт : 1725 Кбит/сек
Ширина : 720 пикселей
Высота : 544 пикселя
Соотношение сторон : 4:3
Частота кадров : 25,000 кадров/сек
Цветовое пространство : YUV
Субдискретизация насыщенности : 4:2:0
Битовая глубина : 8 бит
Тип развёртки : Прогрессивная
Метод сжатия : С потерями
Бит/(Пиксели*Кадры) : 0.176
Размер потока : 671 Мбайт (90%)
Библиотека кодирования : XviD 73

Аудио
Идентификатор : 1
Формат : AC-3
Формат/Информация : Audio Coding 3
Расширение режима : CM (complete main)
Параметр Endianness формата : Big
Идентификатор кодека : 2000
Продолжительность : 54 м.
Вид битрейта : Постоянный
Битрейт : 192 Кбит/сек
Каналы : 2 канала
Расположение каналов : Front: L R
Частота : 48,0 КГц
Битовая глубина : 16 бит
Метод сжатия : С потерями
Размер потока : 74,7 Мбайт (10%)
Выравнивание : Разделение по промежуткам
Продолжительность промежутка : 40 мс. (1,00 видеокадр)
Время предзагрузки промежутка : 500 мс





   Похожие торренты   Торрент   Размер 
В этой теме нет новых непрочитанных сообщений. Юные партизаны (1942) DVDRip-AVC от New-Team

9 | 12

744.14 МБ

В этой теме нет новых непрочитанных сообщений. Партизаны в степях Украины (1943) DVDRip от New-Team

38 | 10

746.77 МБ

В этой теме нет новых непрочитанных сообщений. Партизаны в степях Украины (1943) DVDRip-AVC от New-Team

261 | 12

1.09 ГБ

В этой теме нет новых непрочитанных сообщений. Партизаны в степях Украины (1943) DVDRip от New-Team

11 | 6

1.09 ГБ

В этой теме нет новых непрочитанных сообщений. Неуловимый Ян (1942) DVDRip-AVC от New-Team

14 | 17

744.51 МБ

В этой теме нет новых непрочитанных сообщений. Неуловимый Ян (1942) DVDRip от New-Team

7 | 6

744.79 МБ

В этой теме нет новых непрочитанных сообщений. Бой под Соколом (1942) DVDRip-AVC от New-Team

16 | 6

744.52 МБ




Вы не можете начинать темы
Вы не можете отвечать на сообщения
Вы не можете редактировать свои сообщения
Вы не можете удалять свои сообщения
Вы не можете добавлять вложения

Перейти:  
Для Мосгорсуда, Роскомнадзора и рекламодателей: mosgorsud-torrent[собачка]yandex.ru
 Вход
ppkBB3cker v.2 © 2008-2014 @ PPK
[ Time : 0.027s | 17 Queries | GZIP : Off ]

Торрент трекер RUTOR.IN, Не можете зайти на rutor.org? Какой новый адрес рутор? Какое зеркало рутор? Не работает rutor.org и зеркала? Тогда наш торрент специально для вас. Rutor.in неофициальное зеркало rutor. В случае если у Вас заблокирован rutor или вдруг Вы не можете на него зайти, то Вы без труда сможете скачать бесплатно и без рекламы последние новинки кино, игр, сериалов и прочего у нас, на Rutor.in. Не нужно использовать прокси, чтобы зайти на рутор, достаточно воспользоваться нашим ресурсом. Все новые фильмы, игры, сериалы, книги и музыка за 2013 и 2014 годы через торрент бесплатно. Скачивайте фильмы в хорошем качестве, игры для пк, xbox, playstation без регистрации. У нас вы найдете новые Зарубежные сериалы и Русские сериалы 2013, 2014, 2015 годов. Оставайтесь с нами, качайте любимые фильмы, игры, сериалы, книги и музыку.