img image001 image001 image001 image001 image001 image001 image001 image001 image001 image001 image001 image001 image001 image001 image001

Planets Sun Sun Sun
Статистика раздачи
Автор: Nickolas3434 | Размер: 743.96 МБ | Добавлен: 03 дек 2014
Раздают: 5    Качают: 16
Скачать торрент
Скачать торрент
Описание торрента

СообщениеДобавлено: 03 дек 2014 

Страна: СССР
Производство: Мосфильм

Жанр: военный
Год выпуска: 1946
Продолжительность: 01:22:06

Перевод: не требуется
Оригинальная аудиодорожка: русский
Cубтитры: нет

Режиссер: Александр Столпер

В ролях:
Михаил Кузнецов, Владимир Дружников, Нина Зорская, В. Германова, Юрий Любимов, Андрей Петров, Василий Зайчиков, Нина Архипова, Александр Ханов...

Описание:
Начало Великой Отечественной войны. Летчик-истребитель Саша Самохин воюет на передовой и разрабатывает новую тактику ведения воздушного боя. В далеком городе в тылу конструктор Казаков проектирует новый сверхскоростной самолет. Когда в Москве дают разрешение собрать этот самолет, на его испытания направляют Александра Самохина, ставшего уже Героем Советского Союза...





Исходник: DVD5 R5
Тип релиза: DVDRip
Контейнер: AVI

Видео: 640x480 (4:3), 25 fps, XviD ~ 1129 kbps avg, 0.147 bit/pixel
Аудио: 48 kHz, MP3 2.0, 128 kbps

Раздача от:
Общее
Полное имя : Nashe.serdce.1946.DVDRip-745_[New-team]_by_AVP_Studio.avi
Формат : AVI
Формат/Информация : Audio Video Interleave
Размер файла : 744 Мбайт
Продолжительность : 1 ч. 22 м.
Общий поток : 1267 Кбит/сек
Программа кодирования : VirtualDubModRus 1.5.10.2 (build 2542/release)
Библиотека кодирования : VirtualDubMod build 2542/release

Видео
Идентификатор : 0
Формат : MPEG-4 Visual
Профиль формата : Advanced Simple@L5
Параметр BVOP формата : 1
Параметр QPel формата : Нет
Параметр GMC формата : Без точки перехода
Параметр матрицы формата : Выборочная
Идентификатор кодека : XVID
Идентификатор кодека/Подсказка : XviD
Продолжительность : 1 ч. 22 м.
Битрейт : 1129 Кбит/сек
Ширина : 640 пикселей
Высота : 480 пикселей
Соотношение сторон : 4:3
Частота кадров : 25,000 кадров/сек
Цветовое пространство : YUV
Субдискретизация насыщенности : 4:2:0
Битовая глубина : 8 бит
Тип развёртки : Прогрессивная
Метод сжатия : С потерями
Бит/(Пиксели*Кадры) : 0.147
Размер потока : 663 Мбайт (89%)
Библиотека кодирования : XviD 73

Аудио
Идентификатор : 1
Формат : MPEG Audio
Версия формата : Version 1
Профиль формата : Layer 3
Идентификатор кодека : 55
Идентификатор кодека/Подсказка : MP3
Продолжительность : 1 ч. 22 м.
Вид битрейта : Постоянный
Битрейт : 128 Кбит/сек
Каналы : 2 канала
Частота : 48,0 КГц
Метод сжатия : С потерями
Размер потока : 75,2 Мбайт (10%)
Выравнивание : Соединение по промежуткам
Продолжительность промежутка : 40 мс. (1,00 видеокадр)
Время предзагрузки промежутка : 504 мс.
Библиотека кодирования : LAME3.99r
Настройки программы : -m s -V 4 -q 2 -lowpass 17 -b 128





   Похожие торренты   Торрент   Размер 
В этой теме нет новых непрочитанных сообщений. Наше сердце (1946) DVDRip-AVC от New-Team

43 | 9

1.46 ГБ

В этой теме нет новых непрочитанных сообщений. Наше сердце (1946) DVDRip от New-Team

14 | 7

1.46 ГБ

В этой теме нет новых непрочитанных сообщений. Сыновья (1946) DVDRip-AVC от New-Team

21 | 10

743.66 МБ

В этой теме нет новых непрочитанных сообщений. Сыновья (1946) DVDRip от New-Team

28 | 9

744.81 МБ

В этой теме нет новых непрочитанных сообщений. Синегория (1946) DVDRip от New-Team

7 | 9

1.09 ГБ

В этой теме нет новых непрочитанных сообщений. Клятва (1946) DVDRip от New-Team

10 | 1

746.48 МБ

В этой теме нет новых непрочитанных сообщений. Сын полка (1946) DVDRip от New-Team

44 | 1

743.75 МБ




Вы не можете начинать темы
Вы не можете отвечать на сообщения
Вы не можете редактировать свои сообщения
Вы не можете удалять свои сообщения
Вы не можете добавлять вложения

Перейти:  
Для Мосгорсуда, Роскомнадзора и рекламодателей: mosgorsud-torrent[собачка]yandex.ru
 Вход
ppkBB3cker v.2 © 2008-2014 @ PPK
[ Time : 0.053s | 16 Queries | GZIP : Off ]

cron