img image001 image001 image001 image001 image001 image001 image001 image001 image001 image001 image001 image001 image001 image001 image001

Planets Sun Sun Sun
Статистика раздачи
Автор: Nickolas3434 | Размер: 1.36 ГБ | Добавлен: 04 дек 2014
Раздают: 139    Качают: 11
Скачать торрент
Скачать торрент
Описание торрента

СообщениеДобавлено: 04 дек 2014 

Информация о фильме
Оригинальное название: Репетиции
Год выхода: 2013
Жанр: Драма, комедия
Режиссер: Оксана Карас
В ролях: Александра Виноградова, Никита Ефремов, Игорь Яцко, Ирина Денисова, Пётр Фёдоров, Елена Коренева, Александр Яценко, Василий Соловьев, Юрий Шерстнёв, Азамат Нигманов

О фильме:
Театральный художник Александра и талантливый актер Игорь — красивая молодая пара. Они живут вместе, но ежедневно, «на завтра» откладывают самые важные вопросы- семьи, детей, принятия решений. Мегаполис диктует бешеный ритм жизни. Работа, секс, премьеры, встречи дарят опасную иллюзию, что настоящее- всего лишь репетиция, и завтра все можно будет переиграть заново. Не желая уезжать с Игорем на другой конец света, Александра решается на новый роман. Очередные «репетиции», как ей кажется, проходят удачно, но внезапно меняется задуманный сценарий.


Страна: Россия
Студия: 2Д Целлулоид
Продолжительность: 01:39:18
Язык: Русский
Файл
Кодек: XviD
Качество: SATRip
Видео: 1826 Кбит/с, 720x400, 25.000 кадр/с
Звук: (MP3, 2 ch, 128 Кбит/с)

Семпл


Общее
Полное имя : Repeticii.2013.SATRip.MediaClub.avi
Формат : AVI
Формат/Информация : Audio Video Interleave
Размер файла : 1,36 Гбайт
Продолжительность : 1 ч. 39 м.
Общий поток : 1964 Кбит/сек
Название фильма : MediaClub
Программа кодирования : VirtualDubMod 1.5.10.2 (build 2540/release)
Библиотека кодирования : VirtualDubMod build 2540/release

Видео
Идентификатор : 0
Формат : MPEG-4 Visual
Профиль формата : Advanced Simple@L5
Параметр BVOP формата : 2
Параметр QPel формата : Нет
Параметр GMC формата : Без точки перехода
Параметр матрицы формата : Default (MPEG)
Идентификатор кодека : XVID
Идентификатор кодека/Подсказка : XviD
Продолжительность : 1 ч. 39 м.
Битрейт : 1826 Кбит/сек
Ширина : 720 пикселей
Высота : 400 пикселей
Соотношение сторон : 16:9
Частота кадров : 25,000 кадров/сек
Цветовое пространство : YUV
Субдискретизация насыщенности : 4:2:0
Битовая глубина : 8 бит
Тип развёртки : Прогрессивная
Метод сжатия : С потерями
Бит/(Пиксели*Кадры) : 0.254
Размер потока : 1,27 Гбайт (93%)
Библиотека кодирования : XviD 65

Аудио
Идентификатор : 1
Формат : MPEG Audio
Версия формата : Version 1
Профиль формата : Layer 3
Идентификатор кодека : 55
Идентификатор кодека/Подсказка : MP3
Продолжительность : 1 ч. 39 м.
Вид битрейта : Постоянный
Битрейт : 128 Кбит/сек
Каналы : 2 канала
Частота : 48,0 КГц
Метод сжатия : С потерями
Размер потока : 90,9 Мбайт (7%)
Выравнивание : Разделение по промежуткам
Продолжительность промежутка : 40 мс. (1,00 видеокадр)
Время предзагрузки промежутка : 504 мс.
Библиотека кодирования : LAME3.99r
Настройки программы : -m s -V 4 -q 2 -lowpass 17 -b 128


Релиз от:



   Похожие торренты   Торрент   Размер 
В этой теме нет новых непрочитанных сообщений. Репетиции (2013) DVB от MediaClub

169 | 9

1.63 ГБ

В этой теме нет новых непрочитанных сообщений. Формула 1. Сезон 2013. Этап 08. Гран При Великобритании (2013) SATRip от MediaClub

2 | 2

1.73 ГБ

В этой теме нет новых непрочитанных сообщений. Формула 1. Сезон 2013. Этап 09. Гонка. Гран При Германии (2013) SATRip от MediaClub

37 | 6

1.72 ГБ

В этой теме нет новых непрочитанных сообщений. Хоккей. КХЛ 2013/14. Авангард (Омская область) - Динамо (Москва) (2013) SATRip от MediaClub

3 | 2

1.41 ГБ

В этой теме нет новых непрочитанных сообщений. Формула 1. Сезон 2013. Этап 19. Гран-При Бразилии. Гонка (2013) SATRip от MediaClub

0 | 2

1.65 ГБ

В этой теме нет новых непрочитанных сообщений. Формула 1. Сезон 2013. Этап 09. Гран-при Германии. Квалификация (2013) SATRip от MediaClub

0 | 3

944.99 МБ

В этой теме нет новых непрочитанных сообщений. Футбол. Награда ФИФА Золотой Мяч 2013 / FIFA Ballon d'Or 2013 (2014) SATRip от MediaClub

52 | 7

1.47 ГБ




Вы не можете начинать темы
Вы не можете отвечать на сообщения
Вы не можете редактировать свои сообщения
Вы не можете удалять свои сообщения
Вы не можете добавлять вложения

Перейти:  
Для Мосгорсуда, Роскомнадзора и рекламодателей: mosgorsud-torrent[собачка]yandex.ru
 Вход
ppkBB3cker v.2 © 2008-2014 @ PPK
[ Time : 0.026s | 15 Queries | GZIP : Off ]

Торрент трекер RUTOR.IN, Не можете зайти на rutor.org? Какой новый адрес рутор? Какое зеркало рутор? Не работает rutor.org и зеркала? Тогда наш торрент специально для вас. Rutor.in неофициальное зеркало rutor. В случае если у Вас заблокирован rutor или вдруг Вы не можете на него зайти, то Вы без труда сможете скачать бесплатно и без рекламы последние новинки кино, игр, сериалов и прочего у нас, на Rutor.in. Не нужно использовать прокси, чтобы зайти на рутор, достаточно воспользоваться нашим ресурсом. Все новые фильмы, игры, сериалы, книги и музыка за 2013 и 2014 годы через торрент бесплатно. Скачивайте фильмы в хорошем качестве, игры для пк, xbox, playstation без регистрации. У нас вы найдете новые Зарубежные сериалы и Русские сериалы 2013, 2014, 2015 годов. Оставайтесь с нами, качайте любимые фильмы, игры, сериалы, книги и музыку.