img image001 image001 image001 image001 image001 image001 image001 image001 image001 image001 image001 image001 image001 image001 image001

Planets Sun Sun Sun
Статистика раздачи
Автор: Nickolas3434 | Размер: 372.58 МБ | Добавлен: 05 дек 2014
Раздают: 16    Качают: 5
Скачать торрент
Скачать торрент
Описание торрента

СообщениеДобавлено: 05 дек 2014 

Страна: СССР
Производство: Советская Беларусь

Жанр: короткометражка, комедия
Год выпуска: 1938
Продолжительность: 00:25:18

Перевод: Не требуется
Cубтитры: нет
Оригинальная аудиодорожка: русский

Режиссер: Сергей Сплошнов

В ролях:
Степан Каюков, Виталий Полицеймако, Владимир Таскин, Константин Адашевский, Петр Гофман, Иван Назаров, Александр Бениаминов, Николай Литвинов...

Описание:
В общественном клубе с благотворительной целью давали бал-маскарад. В самый разгар веселья, неизвестный в кучерском костюме и чёрной маске, устроил скандал. Он вытолкал из читального зала благородных господ и устроился за сервированным столиком с двумя девицами. Никакие увещевания клубного старшины и полицейского чина не производили на него впечатления. Он только ещё больше ругался и куражился над негодующими гостями.
Когда дебошир снял маску, то перед изумлённой публикой предстал Егор Нилыч Пятигоров, известный миллионер и местный благодетель. Всеобщее возмущение хамским поведением пьяного хулигана сменилось одобрительными смешками. Каждый старался показать, что ценит проделки такого замечательного шутника. Распорядитель провожает почётного гостя к экипажу и к большому удовольствию собравшихся говорит, что Егор Нилыч уехал довольным.






Источник: DVD5 R5
Качество видео: DVDRip
Формат видео: AVI

Виде: 688x512 (4:3), 25 fps, XviD ~ 1857 kbps avg, 0.211 bit/pixel
Аудио: 48 kHz, Dolby Digital AC3 2.0, 192 kbps

Раздача от:
Общее
Полное имя : Maska.1938.DVDRip_[New-team]_by_AVP_Studio.avi
Формат : AVI
Формат/Информация : Audio Video Interleave
Размер файла : 373 Мбайт
Продолжительность : 25 м.
Общий поток : 2058 Кбит/сек
Программа кодирования : VirtualDubModRus 1.5.10.2 (build 2542/release)
Библиотека кодирования : VirtualDubMod build 2542/release

Видео
Идентификатор : 0
Формат : MPEG-4 Visual
Профиль формата : Advanced Simple@L5
Параметр BVOP формата : 1
Параметр QPel формата : Нет
Параметр GMC формата : Без точки перехода
Параметр матрицы формата : Выборочная
Идентификатор кодека : XVID
Идентификатор кодека/Подсказка : XviD
Продолжительность : 25 м.
Битрейт : 1857 Кбит/сек
Ширина : 688 пикселей
Высота : 512 пикселей
Соотношение сторон : 4:3
Частота кадров : 25,000 кадров/сек
Цветовое пространство : YUV
Субдискретизация насыщенности : 4:2:0
Битовая глубина : 8 бит
Тип развёртки : Прогрессивная
Метод сжатия : С потерями
Бит/(Пиксели*Кадры) : 0.211
Размер потока : 336 Мбайт (90%)
Библиотека кодирования : XviD 73

Аудио
Идентификатор : 1
Формат : AC-3
Формат/Информация : Audio Coding 3
Расширение режима : CM (complete main)
Параметр Endianness формата : Big
Идентификатор кодека : 2000
Продолжительность : 25 м.
Вид битрейта : Постоянный
Битрейт : 192 Кбит/сек
Каналы : 2 канала
Расположение каналов : Front: L R
Частота : 48,0 КГц
Битовая глубина : 16 бит
Метод сжатия : С потерями
Размер потока : 34,7 Мбайт (9%)
Выравнивание : Разделение по промежуткам
Продолжительность промежутка : 40 мс. (1,00 видеокадр)
Время предзагрузки промежутка : 500 мс





   Похожие торренты   Торрент   Размер 
В этой теме нет новых непрочитанных сообщений. Маска (1938) DVDRip-AVC от New-Team

19 | 12

372.12 МБ

В этой теме нет новых непрочитанных сообщений. На границе (1938) DVDRip от New-Team

9 | 9

744.51 МБ

В этой теме нет новых непрочитанных сообщений. На границе (1938) DVDRip от New-Team

18 | 6

1.46 ГБ

В этой теме нет новых непрочитанных сообщений. В людях (1938) DVDRip от New-Team

6 | 6

743.93 МБ

В этой теме нет новых непрочитанных сообщений. В людях (1938) DVDRip-AVC от New-Team

10 | 23

1.46 ГБ

В этой теме нет новых непрочитанных сообщений. На границе (1938) DVDRip-AVC от New-Team

11 | 6

1.46 ГБ

В этой теме нет новых непрочитанных сообщений. В людях (1938) DVDRip от New-Team

15 | 7

1.45 ГБ




Вы не можете начинать темы
Вы не можете отвечать на сообщения
Вы не можете редактировать свои сообщения
Вы не можете удалять свои сообщения
Вы не можете добавлять вложения

Перейти:  
Для Мосгорсуда, Роскомнадзора и рекламодателей: mosgorsud-torrent[собачка]yandex.ru
 Вход
ppkBB3cker v.2 © 2008-2014 @ PPK
[ Time : 0.521s | 16 Queries | GZIP : Off ]

Торрент трекер RUTOR.IN, Не можете зайти на rutor.org? Какой новый адрес рутор? Какое зеркало рутор? Не работает rutor.org и зеркала? Тогда наш торрент специально для вас. Rutor.in неофициальное зеркало rutor. В случае если у Вас заблокирован rutor или вдруг Вы не можете на него зайти, то Вы без труда сможете скачать бесплатно и без рекламы последние новинки кино, игр, сериалов и прочего у нас, на Rutor.in. Не нужно использовать прокси, чтобы зайти на рутор, достаточно воспользоваться нашим ресурсом. Все новые фильмы, игры, сериалы, книги и музыка за 2013 и 2014 годы через торрент бесплатно. Скачивайте фильмы в хорошем качестве, игры для пк, xbox, playstation без регистрации. У нас вы найдете новые Зарубежные сериалы и Русские сериалы 2013, 2014, 2015 годов. Оставайтесь с нами, качайте любимые фильмы, игры, сериалы, книги и музыку.
cron