img image001 image001 image001 image001 image001 image001 image001 image001 image001 image001 image001 image001 image001 image001 image001

Planets Sun Sun Sun
Статистика раздачи
Автор: Nickolas3434 | Размер: 744.96 МБ | Добавлен: 05 дек 2014
Раздают: 37    Качают: 5
Скачать торрент
Скачать торрент
Описание торрента

СообщениеДобавлено: 05 дек 2014 

Страна: СССР
Производство: Белгоскино

Жанр: мюзикл, комедия
Год выпуска: 1938
Продолжительность: 00:43:09

Перевод: Не требуется
Cубтитры: нет
Оригинальная аудиодорожка: русский

Режиссер: Исидор Анненский

В ролях:
Ольга Андровская, Михаил Жаров, Иван Пельтцер, Константин Сорокин...

Описание:
Фильм является экранизацией одноименной пьесы А. П. Чехова и показывает, в частности, как, в зависимости от чувственного настроя главной героини, может страдать и ни в чем неповинное животное Тоби, оставаясь без овса. Помещик Смирнов, волокита и сердцеед, приезжает к соседке-помещице за старым денежным долгом, но получает категорический отказ: молодая вдова заявляет ему, что оплакивает смерть мужа и не расположена заниматься делами. Смирнов в ярости, но чары хорошенькой вдовушки заставляют его забыть о деньгах.






Источник: DVD5 R5
Качество видео: DVDRip
Формат видео: AVI

Виде: 688x512 (4:3), 25 fps, XviD ~ 2212 kbps avg, 0.251 bit/pixel
Аудио: 48 kHz, Dolby Digital AC3 2.0, 192 kbps

Раздача от:
Общее
Полное имя : Medved.1938.DVDRip_[New-team]_by_AVP_Studio.avi
Формат : AVI
Формат/Информация : Audio Video Interleave
Размер файла : 745 Мбайт
Продолжительность : 43 м.
Общий поток : 2414 Кбит/сек
Программа кодирования : VirtualDubModRus 1.5.10.2 (build 2542/release)
Библиотека кодирования : VirtualDubMod build 2542/release

Видео
Идентификатор : 0
Формат : MPEG-4 Visual
Профиль формата : Advanced Simple@L5
Параметр BVOP формата : 1
Параметр QPel формата : Нет
Параметр GMC формата : Без точки перехода
Параметр матрицы формата : Выборочная
Идентификатор кодека : XVID
Идентификатор кодека/Подсказка : XviD
Продолжительность : 43 м.
Битрейт : 2212 Кбит/сек
Ширина : 688 пикселей
Высота : 512 пикселей
Соотношение сторон : 4:3
Частота кадров : 25,000 кадров/сек
Цветовое пространство : YUV
Субдискретизация насыщенности : 4:2:0
Битовая глубина : 8 бит
Тип развёртки : Прогрессивная
Метод сжатия : С потерями
Бит/(Пиксели*Кадры) : 0.251
Размер потока : 683 Мбайт (92%)
Библиотека кодирования : XviD 73

Аудио
Идентификатор : 1
Формат : AC-3
Формат/Информация : Audio Coding 3
Расширение режима : CM (complete main)
Параметр Endianness формата : Big
Идентификатор кодека : 2000
Продолжительность : 43 м.
Вид битрейта : Постоянный
Битрейт : 192 Кбит/сек
Каналы : 2 канала
Расположение каналов : Front: L R
Частота : 48,0 КГц
Битовая глубина : 16 бит
Метод сжатия : С потерями
Размер потока : 59,3 Мбайт (8%)
Выравнивание : Разделение по промежуткам
Продолжительность промежутка : 40 мс. (1,00 видеокадр)
Время предзагрузки промежутка : 500 мс





   Похожие торренты   Торрент   Размер 
В этой теме нет новых непрочитанных сообщений. Медведь (1938) DVDRip-AVC от New-Team

149 | 17

744.43 МБ

В этой теме нет новых непрочитанных сообщений. Медведь (1938) DVDRip

71 | 11

664.92 МБ

В этой теме нет новых непрочитанных сообщений. В людях (1938) DVDRip от New-Team

15 | 7

1.45 ГБ

В этой теме нет новых непрочитанных сообщений. На границе (1938) DVDRip от New-Team

9 | 9

744.51 МБ

В этой теме нет новых непрочитанных сообщений. Комсомольск (1938) DVDRip-AVC от New-Team

37 | 9

1.46 ГБ

В этой теме нет новых непрочитанных сообщений. В людях (1938) DVDRip-AVC от New-Team

9 | 22

1.46 ГБ

В этой теме нет новых непрочитанных сообщений. Комсомольск (1938) DVDRip от New-Team

19 | 6

1.46 ГБ




Вы не можете начинать темы
Вы не можете отвечать на сообщения
Вы не можете редактировать свои сообщения
Вы не можете удалять свои сообщения
Вы не можете добавлять вложения

Перейти:  
Для Мосгорсуда, Роскомнадзора и рекламодателей: mosgorsud-torrent[собачка]yandex.ru
 Вход
ppkBB3cker v.2 © 2008-2014 @ PPK
[ Time : 0.248s | 16 Queries | GZIP : Off ]

Торрент трекер RUTOR.IN, Не можете зайти на rutor.org? Какой новый адрес рутор? Какое зеркало рутор? Не работает rutor.org и зеркала? Тогда наш торрент специально для вас. Rutor.in неофициальное зеркало rutor. В случае если у Вас заблокирован rutor или вдруг Вы не можете на него зайти, то Вы без труда сможете скачать бесплатно и без рекламы последние новинки кино, игр, сериалов и прочего у нас, на Rutor.in. Не нужно использовать прокси, чтобы зайти на рутор, достаточно воспользоваться нашим ресурсом. Все новые фильмы, игры, сериалы, книги и музыка за 2013 и 2014 годы через торрент бесплатно. Скачивайте фильмы в хорошем качестве, игры для пк, xbox, playstation без регистрации. У нас вы найдете новые Зарубежные сериалы и Русские сериалы 2013, 2014, 2015 годов. Оставайтесь с нами, качайте любимые фильмы, игры, сериалы, книги и музыку.