img image001 image001 image001 image001 image001 image001 image001 image001 image001 image001 image001 image001 image001 image001 image001

Planets Sun Sun Sun
Статистика раздачи
Автор: Nickolas3434 | Размер: 1.49 ГБ | Добавлен: 06 дек 2014
Раздают: 221    Качают: 14
Скачать торрент
Скачать торрент
Описание торрента

СообщениеДобавлено: 06 дек 2014 

Информация о фильме
Оригинальное название: Кино про Алексеева
Год выхода: 2014
Жанр: драма
Режиссер: Михаил Сегал
В ролях: Александр Збруев, Алексей Капитонов, Татьяна Майст, Ксения Радченко, Денис Фомин, Светлана Первушина, Анастасия Попкова, Андрей Макаревич, Дмитрий Гудочкин, Иван Звягинцев
О фильме: Фильм-путешествие по удивительной жизни Алексеева. Он пил чай с Тарковским, попал в КГБ из-за Гагарина, конкурировал с Калашниковым и Высоцким. Однажды он узнаёт о себе нечто большее, чем знал и мог предполагать: о своём таланте, о следе, который оставил в судьбах других людей. Жизнь можно прожить заново, если тебя кто-то любит.

Выпущено: Россия / Новые люди
Продолжительность: 01:30:57
Озвучивание: Оригинальное [Лицензия]
Файл
Качество: DVDRip (AVC)
Видео: MPEG-4 AVC, 1890 Кбит/с, 720x428@1024x428
Аудио: AC3, 6 ch, 448 Кбит/с
General
Unique ID : 178021865477628035254716360220237063256 (0x85EDC39F32710C818BCFAC002B8B6458)
Complete name : C:Kino.pro.Alekseeva.2014.O.DVDRip.AVC.ExKinoRay.mkv
Format : Matroska
Format version : Version 2
File size : 1.49 GiB
Duration : 1h 30mn
Overall bit rate : 2 339 Kbps
Movie name : Kino pro Alekseeva 2014 from ExKinoRay
Encoded date : UTC 2014-12-05 02:48:29
Writing application : mkvmerge v4.9.1 ('Ich will') built on Jul 11 2011 23:53:15
Writing library : libebml v1.2.1 + libmatroska v1.1.1
Video
ID : 1
Format : AVC
Format/Info : Advanced Video Codec
Format profile : High@L4.1
Format settings, CABAC : Yes
Format settings, ReFrames : 8 frames
Codec ID : V_MPEG4/ISO/AVC
Duration : 1h 30mn
Bit rate : 1 890 Kbps
Width : 720 pixels
Height : 428 pixels
Display aspect ratio : 2.40:1
Frame rate mode : Constant
Frame rate : 25.000 fps
Color space : YUV
Chroma subsampling : 4:2:0
Bit depth : 8 bits
Scan type : Progressive
Bits/(Pixel*Frame) : 0.245
Stream size : 1.17 GiB (79%)
Title : Enigma
Writing library : x264 core 133 r2334 a3ac64b
Encoding settings : cabac=1 / ref=8 / deblock=1:-1:-2 / analyse=0x3:0x113 / me=umh / subme=11 / psy=1 / psy_rd=1.00:0.00 / mixed_ref=1 / me_range=32 / chroma_me=1 / trellis=2 / 8x8dct=1 / cqm=0 / deadzone=21,11 / fast_pskip=0 / chroma_qp_offset=-2 / threads=12 / lookahead_threads=2 / sliced_threads=0 / nr=0 / decimate=0 / interlaced=0 / bluray_compat=0 / constrained_intra=0 / bframes=9 / b_pyramid=2 / b_adapt=2 / b_bias=0 / direct=3 / weightb=1 / open_gop=0 / weightp=2 / keyint=250 / keyint_min=25 / scenecut=40 / intra_refresh=0 / rc=2pass / mbtree=0 / bitrate=1890 / ratetol=1.0 / qcomp=0.60 / qpmin=0 / qpmax=69 / qpstep=4 / cplxblur=20.0 / qblur=0.5 / ip_ratio=1.40 / pb_ratio=1.30 / aq=1:1.00
Default : Yes
Forced : No
Audio
ID : 2
Format : AC-3
Format/Info : Audio Coding 3
Mode extension : CM (complete main)
Format settings, Endianness : Big
Codec ID : A_AC3
Duration : 1h 30mn
Bit rate mode : Constant
Bit rate : 448 Kbps
Channel(s) : 6 channels
Channel positions : Front: L C R, Side: L R, LFE
Sampling rate : 48.0 KHz
Bit depth : 16 bits
Compression mode : Lossy
Stream size : 291 MiB (19%)
Language : Russian
Default : Yes
Forced : No
Menu
00:00:00.000 : :Chapter 01
00:12:23.520 : :Chapter 02
00:24:05.280 : :Chapter 03
00:35:43.680 : :Chapter 04
00:46:55.680 : :Chapter 05
00:57:13.440 : :Chapter 06
01:07:43.680 : :Chapter 07
01:17:38.880 : :Chapter 08




Релиз от:
Автор релиза:



   Похожие торренты   Торрент   Размер 
В этой теме нет новых непрочитанных сообщений. Кино про Алексеева (2014) DVDRip | Лицензия

645 | 28

1.46 ГБ

В этой теме нет новых непрочитанных сообщений. Кино про Алексеева (2014) DVB от MediaClub

1516 | 36

2.15 ГБ

В этой теме нет новых непрочитанных сообщений. Кино про Алексеева (2014) WEB-DL 720p

145 | 7

2.83 ГБ

В этой теме нет новых непрочитанных сообщений. Кино про Алексеева (2014) SATRip от Scarabey

168 | 8

738.91 МБ

В этой теме нет новых непрочитанных сообщений. Кино про Алексеева (2014) SATRip от MediaClub

705 | 20

1.46 ГБ

В этой теме нет новых непрочитанных сообщений. Кино про Алексеева (2014) SATRip от Scarabey

294 | 15

1.45 ГБ

В этой теме нет новых непрочитанных сообщений. Кино про Алексеева (2014) WEB-DLRip от Scarabey | iTunes

502 | 12

1.44 ГБ




Вы не можете начинать темы
Вы не можете отвечать на сообщения
Вы не можете редактировать свои сообщения
Вы не можете удалять свои сообщения
Вы не можете добавлять вложения

Перейти:  
Для Мосгорсуда, Роскомнадзора и рекламодателей: mosgorsud-torrent[собачка]yandex.ru
 Вход
ppkBB3cker v.2 © 2008-2014 @ PPK
[ Time : 0.054s | 16 Queries | GZIP : Off ]

Торрент трекер RUTOR.IN, Не можете зайти на rutor.org? Какой новый адрес рутор? Какое зеркало рутор? Не работает rutor.org и зеркала? Тогда наш торрент специально для вас. Rutor.in неофициальное зеркало rutor. В случае если у Вас заблокирован rutor или вдруг Вы не можете на него зайти, то Вы без труда сможете скачать бесплатно и без рекламы последние новинки кино, игр, сериалов и прочего у нас, на Rutor.in. Не нужно использовать прокси, чтобы зайти на рутор, достаточно воспользоваться нашим ресурсом. Все новые фильмы, игры, сериалы, книги и музыка за 2013 и 2014 годы через торрент бесплатно. Скачивайте фильмы в хорошем качестве, игры для пк, xbox, playstation без регистрации. У нас вы найдете новые Зарубежные сериалы и Русские сериалы 2013, 2014, 2015 годов. Оставайтесь с нами, качайте любимые фильмы, игры, сериалы, книги и музыку.
cron