img image001 image001 image001 image001 image001 image001 image001 image001 image001 image001 image001 image001 image001 image001 image001

Planets Sun Sun Sun
Статистика раздачи
Автор: Nickolas3434 | Размер: 1.46 ГБ | Добавлен: 07 дек 2014
Раздают: 4044    Качают: 350
Скачать торрент
Скачать торрент
Описание торрента

СообщениеДобавлено: 07 дек 2014 

Информация о фильме
Оригинальное название: 12 месяцев. Новая сказка
Год выхода: 2014
Жанр: Фэнтези
Режиссер: Денис Елеонский
В ролях: Сергей Друзьяк, Антон Юрьев, Анастасия Мельникова, Юлия Такшина, Евгений Воскресенский, Дмитрий Гогу, Владимир Кристовский, Андрей Федорцов, Юрий Гальцев, Андрей Леонов
О фильме:
Девочка из нашего времени попадает в сказочный мир. Среди зимы она должна принести из леса букет подснежников, чтобы наступил Новый Год, который решил отменить злой королевский советник. И только тогда она вернется к родителям.

Страна: Россия
Студия: Никола Фильм
Продолжительность: 01:32:26
Язык: Русский
Файл
Кодек: XviD
Качество: HDTVRip
Видео: 1876 Кбит/с, 720x304, 25.000 кадр/с
Звук: (АС3, 6 ch, 384 Кбит/с)
Семпл

Общее
Полное имя : 12.mesjacev.2014.HDTVRip.MediaClub.avi
Формат : AVI
Формат/Информация : Audio Video Interleave
Размер файла : 1,46 Гбайт
Продолжительность : 1 ч. 32 м.
Общий поток : 2261 Кбит/сек
Название фильма : MediaClub
Программа кодирования : VirtualDubMod 1.5.10.2 (build 2540/release)
Библиотека кодирования : VirtualDubMod build 2540/release
Видео
Идентификатор : 0
Формат : MPEG-4 Visual
Профиль формата : Advanced Simple@L5
Параметр BVOP формата : 2
Параметр QPel формата : Нет
Параметр GMC формата : Без точки перехода
Параметр матрицы формата : Default (MPEG)
Идентификатор кодека : XVID
Идентификатор кодека/Подсказка : XviD
Продолжительность : 1 ч. 32 м.
Битрейт : 1867 Кбит/сек
Ширина : 720 пикселей
Высота : 304 пикселя
Соотношение сторон : 2,35:1
Частота кадров : 25,000 кадров/сек
Цветовое пространство : YUV
Субдискретизация насыщенности : 4:2:0
Битовая глубина : 8 бит
Тип развёртки : Прогрессивная
Метод сжатия : С потерями
Бит/(Пиксели*Кадры) : 0.341
Размер потока : 1,21 Гбайт (83%)
Библиотека кодирования : XviD 65
Аудио
Идентификатор : 1
Формат : AC-3
Формат/Информация : Audio Coding 3
Расширение режима : CM (complete main)
Параметр Endianness формата : Big
Идентификатор кодека : 2000
Продолжительность : 1 ч. 32 м.
Вид битрейта : Постоянный
Битрейт : 384 Кбит/сек
Каналы : 6 каналов
Расположение каналов : Front: L C R, Side: L R, LFE
Частота : 48,0 КГц
Битовая глубина : 16 бит
Метод сжатия : С потерями
Размер потока : 254 Мбайт (17%)
Выравнивание : Разделение по промежуткам
Продолжительность промежутка : 40 мс. (1,00 видеокадр)
Время предзагрузки промежутка : 500 мс.

Релиз от:



   Похожие торренты   Торрент   Размер 
В этой теме нет новых непрочитанных сообщений. 12 месяцев. Новая сказка (2014) WEBRip

4123 | 830

1.37 ГБ

В этой теме нет новых непрочитанных сообщений. 12 месяцев: Новая сказка (2015) WEB-DL 720p | iTunes

141 | 12

2.61 ГБ

В этой теме нет новых непрочитанных сообщений. 12 месяцев: Новая сказка (2015) WEB-DL 1080p | iTunes

321 | 12

3.43 ГБ

В этой теме нет новых непрочитанных сообщений. 12 месяцев: Новая сказка (2015) WEB-DLRip-AVC | iTunes

221 | 14

1.45 ГБ

В этой теме нет новых непрочитанных сообщений. 12 месяцев. Новая сказка (2015) WEBRip от ivandubskoj

984 | 39

700.71 МБ

В этой теме нет новых непрочитанных сообщений. 12 месяцев. Новая сказка (2015) WEB-DLRip-AVC от ExKinoRay | iTunes Russia

187 | 18

1.78 ГБ

В этой теме нет новых непрочитанных сообщений. Пансионат Сказка, или Чудеса включены [01-04 из 04] (2015) HDTVRip 720p от MediaClub

153 | 40

7.39 ГБ




Вы не можете начинать темы
Вы не можете отвечать на сообщения
Вы не можете редактировать свои сообщения
Вы не можете удалять свои сообщения
Вы не можете добавлять вложения

Перейти:  
Для Мосгорсуда, Роскомнадзора и рекламодателей: mosgorsud-torrent[собачка]yandex.ru
 Вход
ppkBB3cker v.2 © 2008-2014 @ PPK
[ Time : 0.049s | 15 Queries | GZIP : Off ]
CGP output time : 0.075s | 5 Queries | GZIP : Off

Торрент трекер RUTOR.IN, Не можете зайти на rutor.org? Какой новый адрес рутор? Какое зеркало рутор? Не работает rutor.org и зеркала? Тогда наш торрент специально для вас. Rutor.in неофициальное зеркало rutor. В случае если у Вас заблокирован rutor или вдруг Вы не можете на него зайти, то Вы без труда сможете скачать бесплатно и без рекламы последние новинки кино, игр, сериалов и прочего у нас, на Rutor.in. Не нужно использовать прокси, чтобы зайти на рутор, достаточно воспользоваться нашим ресурсом. Все новые фильмы, игры, сериалы, книги и музыка за 2013 и 2014 годы через торрент бесплатно. Скачивайте фильмы в хорошем качестве, игры для пк, xbox, playstation без регистрации. У нас вы найдете новые Зарубежные сериалы и Русские сериалы 2013, 2014, 2015 годов. Оставайтесь с нами, качайте любимые фильмы, игры, сериалы, книги и музыку.