img image001 image001 image001 image001 image001 image001 image001 image001 image001 image001 image001 image001 image001 image001 image001

Planets Sun Sun Sun
Статистика раздачи
Автор: Nickolas3434 | Размер: 2.2 ГБ | Добавлен: 07 дек 2014
Раздают: 46    Качают: 10
Скачать торрент
Скачать торрент
Описание торрента

СообщениеДобавлено: 07 дек 2014 

Страна: СССР
Производство: Ленфильм
Жанр: драма, военный, биография, история
Год выпуска: 1937-1938
Продолжительность: 03:35:44 (01:38:21 + 01:57:23)
Перевод: не требуется
Оригинальная аудиодорожка: русский
Cубтитры: нет
Режиссер: Владимир Петров
В ролях:
Николай Симонов, Алла Тарасова, Виктор Добровольский, Ирина Зарубина, Владимир Гардин, Александр Лариков, Владимир Ершов, Николай Литвинов, Михаил Тарханов, Константин Гибшман, Федор Богданов, Михаил Жаров, Николай Черкасов...
Описание:
Конец XVII — начало XVIII столетия. Период становления Великой Российской Империи, время крупных реформ и тайных заговоров, великих воинских побед и дворцовых переворотов, безудержного веселья ассамблей и жестокого кровопролития казней. Шведский король Карл XII, направлявшейся со всей своей армией на Москву, был задержан русскими под Полтавой. 27 июня 1709 года произошла битва. О жизни, государственной и военной деятельности Петра Первого — первого российского императора — рассказывает этот фильм.…





Исходник: 2хDVD9 R5
Тип релиза: DVDRip
Контейнер: AVI
Видео: 688x512 (4:3), 25 fps, XviD ~ 1329 kbps avg, 0.151 bit/pixel
Аудио: 48 kHz, MP3 2.0, 128 kbps
Раздача от:
Общее
Полное имя : Petr.Pervyy.1937-1938.DVDRip-2.18_[New-team]_by_AVP_Studio.avi
Формат : AVI
Формат/Информация : Audio Video Interleave
Размер файла : 1,20 Гбайт
Продолжительность : 1 ч. 57 м.
Общий поток : 1467 Кбит/сек
Программа кодирования : VirtualDubModRus 1.5.10.2 (build 2542/release)
Библиотека кодирования : VirtualDubMod build 2542/release
Видео
Идентификатор : 0
Формат : MPEG-4 Visual
Профиль формата : Advanced Simple@L5
Параметр BVOP формата : 1
Параметр QPel формата : Нет
Параметр GMC формата : Без точки перехода
Параметр матрицы формата : Выборочная
Идентификатор кодека : XVID
Идентификатор кодека/Подсказка : XviD
Продолжительность : 1 ч. 57 м.
Битрейт : 1329 Кбит/сек
Ширина : 688 пикселей
Высота : 512 пикселей
Соотношение сторон : 4:3
Частота кадров : 25,000 кадров/сек
Цветовое пространство : YUV
Субдискретизация насыщенности : 4:2:0
Битовая глубина : 8 бит
Тип развёртки : Прогрессивная
Метод сжатия : С потерями
Бит/(Пиксели*Кадры) : 0.151
Размер потока : 1,09 Гбайт (91%)
Библиотека кодирования : XviD 73
Аудио
Идентификатор : 1
Формат : MPEG Audio
Версия формата : Version 1
Профиль формата : Layer 3
Идентификатор кодека : 55
Идентификатор кодека/Подсказка : MP3
Продолжительность : 1 ч. 57 м.
Вид битрейта : Постоянный
Битрейт : 128 Кбит/сек
Каналы : 2 канала
Частота : 48,0 КГц
Метод сжатия : С потерями
Размер потока : 107 Мбайт (9%)
Выравнивание : Соединение по промежуткам
Продолжительность промежутка : 40 мс. (1,00 видеокадр)
Время предзагрузки промежутка : 504 мс.
Библиотека кодирования : LAME3.99r
Настройки программы : -m s -V 4 -q 2 -lowpass 17 -b 128





   Похожие торренты   Торрент   Размер 
В этой теме нет новых непрочитанных сообщений. Пётр Первый (1937-1938) DVDRip-AVC от New-Team

235 | 20

2.91 ГБ

В этой теме нет новых непрочитанных сообщений. Пётр Первый (1937-1938) DVDRip от New-Team

53 | 18

2.91 ГБ

В этой теме нет новых непрочитанных сообщений. Петр Первый (1937) DVDRip

302 | 17

2.02 ГБ

В этой теме нет новых непрочитанных сообщений. Трилогия о Максиме - Юность Максима, Возвращение Максима, Выборгская сторона (1935, 1937, 1938) DVDRip

89 | 36

4.09 ГБ

В этой теме нет новых непрочитанных сообщений. Петр Первый. Завещание [01-04 из 04] (2011) DVDRip от SergV

0 | 1

3.05 ГБ

В этой теме нет новых непрочитанных сообщений. Пётр Первый. Завещание [01-04 из 04] (2011) DVDRip от Youtracker

189 | 13

2.77 ГБ

В этой теме нет новых непрочитанных сообщений. Петр Первый. Завещание [01-04 из 04] (2011) DVDRip-AVC | Лицензия от Zlofenix

137 | 12

2.75 ГБ




Вы не можете начинать темы
Вы не можете отвечать на сообщения
Вы не можете редактировать свои сообщения
Вы не можете удалять свои сообщения
Вы не можете добавлять вложения

Перейти:  
Для Мосгорсуда, Роскомнадзора и рекламодателей: mosgorsud-torrent[собачка]yandex.ru
 Вход
ppkBB3cker v.2 © 2008-2014 @ PPK
[ Time : 0.521s | 16 Queries | GZIP : Off ]

Торрент трекер RUTOR.IN, Не можете зайти на rutor.org? Какой новый адрес рутор? Какое зеркало рутор? Не работает rutor.org и зеркала? Тогда наш торрент специально для вас. Rutor.in неофициальное зеркало rutor. В случае если у Вас заблокирован rutor или вдруг Вы не можете на него зайти, то Вы без труда сможете скачать бесплатно и без рекламы последние новинки кино, игр, сериалов и прочего у нас, на Rutor.in. Не нужно использовать прокси, чтобы зайти на рутор, достаточно воспользоваться нашим ресурсом. Все новые фильмы, игры, сериалы, книги и музыка за 2013 и 2014 годы через торрент бесплатно. Скачивайте фильмы в хорошем качестве, игры для пк, xbox, playstation без регистрации. У нас вы найдете новые Зарубежные сериалы и Русские сериалы 2013, 2014, 2015 годов. Оставайтесь с нами, качайте любимые фильмы, игры, сериалы, книги и музыку.
cron