img image001 image001 image001 image001 image001 image001 image001 image001 image001 image001 image001 image001 image001 image001 image001

Planets Sun Sun Sun
Статистика раздачи
Автор: Nickolas3434 | Размер: 1.46 ГБ | Добавлен: 07 дек 2014
Раздают: 273    Качают: 20
Скачать торрент
Скачать торрент
Описание торрента

СообщениеДобавлено: 07 дек 2014 

Информация о фильме
Оригинальное название: Дочка
Год выхода: 2008
Жанр: Мелодрама, драма
Режиссёр: Максим Мокрушев
В ролях: Владимир Симонов, Татьяна Арнтгольц, Виктор Раков, Юлия Маврина, Алёна Ивченко, Раиса Рязанова, Юрий Осипов, Татьяна Митиенко, Оксана Дорохина, Андрей Тартаков
О фильме: Преуспевающий бизнесмен случайно узнает об измене своей жены с его лучшим другом. В одночасье он теряет и друга и жену. В порыве отчаяния уезжает в город своей первой любви. Однажды в случайной проститутке он узнает свою дочь, родившуюся без него в далеком городе. Но не так просто обрести счастье. Да и дочь ли это?

Выпущено: Россия, БФГ-Медиа-Продакшн, Мостелефильм
Продолжительность: 01:30:00
Перевод: Не требуется
Файл
Качество: DVDRip [Исходник: DVD-5]
Видео: XviD, 2126 Кбит/с, 704x400 (16:9), 25 кадр/с
Аудио: Русский, Dolby AC3, 48000 Гц, 2 канала (Стерео)

General
Complete name : Dochka.2008.DVDRip.avi
Format : AVI
Format/Info : Audio Video Interleave
File size : 1.46 GiB
Duration : 1h 30mn
Overall bit rate : 2 326 Kbps
Movie name : Дочка (2008) DVDRip
Genre : Мелодрама, драма
Recorded date : 06.12.2014
Writing application : VirtualDubMod 1.5.10.3 (build 2550/release)
Writing library : VirtualDubMod build 2550/release
Copyright : rip by ivandubskoj
Video
ID : 0
Format : MPEG-4 Visual
Format profile : Advanced Simple@L5
Format settings, BVOP : 1
Format settings, QPel : No
Format settings, GMC : No warppoints
Format settings, Matrix : Default (MPEG)
Codec ID : XVID
Codec ID/Hint : XviD
Duration : 1h 30mn
Bit rate : 2 126 Kbps
Width : 704 pixels
Height : 400 pixels
Display aspect ratio : 16:9
Frame rate : 25.000 fps
Color space : YUV
Chroma subsampling : 4:2:0
Bit depth : 8 bits
Scan type : Progressive
Compression mode : Lossy
Bits/(Pixel*Frame) : 0.302
Stream size : 1.34 GiB (91%)
Writing library : XviD 73
Audio
ID : 1
Format : AC-3
Format/Info : Audio Coding 3
Mode extension : CM (complete main)
Codec ID : 2000
Duration : 1h 30mn
Bit rate mode : Constant
Bit rate : 192 Kbps
Channel(s) : 2 channels
Channel positions : Front: L R
Sampling rate : 48.0 KHz
Bit depth : 16 bits
Compression mode : Lossy
Stream size : 124 MiB (8%)
Alignment : Split accross interleaves
Interleave, duration : 64 ms (1.60 video frames)
Interleave, preload duration : 500 ms
Title : Russian


Автор рипа - ivandubskoj



   Похожие торренты   Торрент   Размер 
В этой теме нет новых непрочитанных сообщений. Дочка (2008) DVDRip от КинозалSat

9 | 3

700.04 МБ

В этой теме нет новых непрочитанных сообщений. Папина дочка / College Road Trip (2008) DVDRip by GENADIY

23 | 5

1.36 ГБ

В этой теме нет новых непрочитанных сообщений. 80 минут / 80 Minutes (2008) DVDRip от ivandubskoj | Лицензия

72 | 13

1.46 ГБ

В этой теме нет новых непрочитанных сообщений. Новогодняя засада (2008) DVDRip от ivandubskoj | Лицензия

5 | 10

746.24 МБ

В этой теме нет новых непрочитанных сообщений. Ночь закрытых дверей (2008) DVDRip от ivandubskoj | Лицензия

130 | 26

745.93 МБ

В этой теме нет новых непрочитанных сообщений. Папина дочка / College Road Trip (2008) BDRip 720р | P

54 | 17

4.79 ГБ

В этой теме нет новых непрочитанных сообщений. Папина дочка / College Road Trip (2008) HDRip от HQ-VIDEO

165 | 7

1.46 ГБ




Вы не можете начинать темы
Вы не можете отвечать на сообщения
Вы не можете редактировать свои сообщения
Вы не можете удалять свои сообщения
Вы не можете добавлять вложения

Перейти:  
Для Мосгорсуда, Роскомнадзора и рекламодателей: mosgorsud-torrent[собачка]yandex.ru
 Вход
ppkBB3cker v.2 © 2008-2014 @ PPK
[ Time : 0.617s | 15 Queries | GZIP : Off ]

Торрент трекер RUTOR.IN, Не можете зайти на rutor.org? Какой новый адрес рутор? Какое зеркало рутор? Не работает rutor.org и зеркала? Тогда наш торрент специально для вас. Rutor.in неофициальное зеркало rutor. В случае если у Вас заблокирован rutor или вдруг Вы не можете на него зайти, то Вы без труда сможете скачать бесплатно и без рекламы последние новинки кино, игр, сериалов и прочего у нас, на Rutor.in. Не нужно использовать прокси, чтобы зайти на рутор, достаточно воспользоваться нашим ресурсом. Все новые фильмы, игры, сериалы, книги и музыка за 2013 и 2014 годы через торрент бесплатно. Скачивайте фильмы в хорошем качестве, игры для пк, xbox, playstation без регистрации. У нас вы найдете новые Зарубежные сериалы и Русские сериалы 2013, 2014, 2015 годов. Оставайтесь с нами, качайте любимые фильмы, игры, сериалы, книги и музыку.