img image001 image001 image001 image001 image001 image001 image001 image001 image001 image001 image001 image001 image001 image001 image001

Planets Sun Sun Sun
Статистика раздачи
Автор: Nickolas3434 | Размер: 1.09 ГБ | Добавлен: 07 дек 2014
Раздают: 193    Качают: 26
Скачать торрент
Скачать торрент
Описание торрента

СообщениеДобавлено: 07 дек 2014 

Страна: СССР
Производство: Союздетфильм
Жанр: фэнтези, семейный
Год выпуска: 1939
Продолжительность: 01:10:08
Перевод: Не требуется
Cубтитры: нет
Оригинальная аудиодорожка: русский
Режиссер: Александр Роу
В ролях:
Георгий Милляр, Сергей Столяров, Валентина Сорогожская, Лев Потемкин, Никита Кондратьев, Ирина Зарубина, Лидия Сухаревская, Татьяна Барышева, Мария Барабанова, Л. Скавронская...
Описание:
Задумал отец женить трех своих сыновей. Вышли братья в чистое поле и пустили стрелы в разные стороны. Стрела старшего сына упала на боярский двор, к боярской дочери, стрела среднего сына — упала на двор купеческой, а стрела Ивана, младшего сына упала на болото к лягушке-квакушке…





Источник: DVD5 R5
Качество видео: DVDRip
Формат видео: AVI
Виде: 704x528 (4:3), 25 fps, XviD ~ 1768 kbps avg, 0.190 bit/pixel
Аудио: 48 kHz, Dolby Digital AC3 5.1, 448 kbps
Раздача от:
Общее
Полное имя : Vasilisa.Prekrasnaya.1939.DVDRip_[New-team]_by_AVP_Studio.avi
Формат : AVI
Формат/Информация : Audio Video Interleave
Размер файла : 1,09 Гбайт
Продолжительность : 1 ч. 10 м.
Общий поток : 2225 Кбит/сек
Программа кодирования : VirtualDubModRus 1.5.10.2 (build 2542/release)
Библиотека кодирования : VirtualDubMod build 2542/release
Видео
Идентификатор : 0
Формат : MPEG-4 Visual
Профиль формата : Advanced Simple@L5
Параметр BVOP формата : 1
Параметр QPel формата : Нет
Параметр GMC формата : Без точки перехода
Параметр матрицы формата : Выборочная
Идентификатор кодека : XVID
Идентификатор кодека/Подсказка : XviD
Продолжительность : 1 ч. 10 м.
Битрейт : 1768 Кбит/сек
Ширина : 704 пикселя
Высота : 528 пикселей
Соотношение сторон : 4:3
Частота кадров : 25,000 кадров/сек
Цветовое пространство : YUV
Субдискретизация насыщенности : 4:2:0
Битовая глубина : 8 бит
Тип развёртки : Прогрессивная
Метод сжатия : С потерями
Бит/(Пиксели*Кадры) : 0.190
Размер потока : 887 Мбайт (79%)
Библиотека кодирования : XviD 73
Аудио
Идентификатор : 1
Формат : AC-3
Формат/Информация : Audio Coding 3
Расширение режима : CM (complete main)
Параметр Endianness формата : Big
Идентификатор кодека : 2000
Продолжительность : 1 ч. 10 м.
Вид битрейта : Постоянный
Битрейт : 448 Кбит/сек
Каналы : 6 каналов
Расположение каналов : Front: L C R, Side: L R, LFE
Частота : 48,0 КГц
Битовая глубина : 16 бит
Метод сжатия : С потерями
Размер потока : 225 Мбайт (20%)
Выравнивание : Разделение по промежуткам
Продолжительность промежутка : 40 мс. (1,00 видеокадр)
Время предзагрузки промежутка : 500 мс





   Похожие торренты   Торрент   Размер 
В этой теме нет новых непрочитанных сообщений. Василиса Прекрасная (1939) DVDRip-AVC от New-Team

105 | 16

1.09 ГБ

В этой теме нет новых непрочитанных сообщений. Василиса Прекрасная (1939) DVDRip от New-Team

86 | 14

742.76 МБ

В этой теме нет новых непрочитанных сообщений. Василиса Прекрасная (1939) DVDRip

39 | 6

1.37 ГБ

В этой теме нет новых непрочитанных сообщений. Василиса Прекрасная (1977) DVDRip-AVC от SDIncorporation

49 | 3

293.38 МБ

В этой теме нет новых непрочитанных сообщений. Василиса Прекрасная (1989) PNG от RG Superdetki

37 | 4

185.72 МБ

В этой теме нет новых непрочитанных сообщений. Василиса Прекрасная (1977) HDTVRip 720p от SDIncorporation

73 | 9

626.5 МБ

В этой теме нет новых непрочитанных сообщений. Мойдодыр (1939,1954), Тараканище, Федорино горе, От двух до пяти, Ваня и крокодил, Краденое солнце (1939-1984) DVDRip от New-Team

397 | 34

1.45 ГБ




Вы не можете начинать темы
Вы не можете отвечать на сообщения
Вы не можете редактировать свои сообщения
Вы не можете удалять свои сообщения
Вы не можете добавлять вложения

Перейти:  
Для Мосгорсуда, Роскомнадзора и рекламодателей: mosgorsud-torrent[собачка]yandex.ru
 Вход
ppkBB3cker v.2 © 2008-2014 @ PPK
[ Time : 1.190s | 16 Queries | GZIP : Off ]

Торрент трекер RUTOR.IN, Не можете зайти на rutor.org? Какой новый адрес рутор? Какое зеркало рутор? Не работает rutor.org и зеркала? Тогда наш торрент специально для вас. Rutor.in неофициальное зеркало rutor. В случае если у Вас заблокирован rutor или вдруг Вы не можете на него зайти, то Вы без труда сможете скачать бесплатно и без рекламы последние новинки кино, игр, сериалов и прочего у нас, на Rutor.in. Не нужно использовать прокси, чтобы зайти на рутор, достаточно воспользоваться нашим ресурсом. Все новые фильмы, игры, сериалы, книги и музыка за 2013 и 2014 годы через торрент бесплатно. Скачивайте фильмы в хорошем качестве, игры для пк, xbox, playstation без регистрации. У нас вы найдете новые Зарубежные сериалы и Русские сериалы 2013, 2014, 2015 годов. Оставайтесь с нами, качайте любимые фильмы, игры, сериалы, книги и музыку.