img image001 image001 image001 image001 image001 image001 image001 image001 image001 image001 image001 image001 image001 image001 image001

Planets Sun Sun Sun
Статистика раздачи
Автор: Nickolas3434 | Размер: 742.76 МБ | Добавлен: 07 дек 2014
Раздают: 84    Качают: 12
Скачать торрент
Скачать торрент
Описание торрента

СообщениеДобавлено: 07 дек 2014 

Страна: СССР
Производство: Союздетфильм
Жанр: фэнтези, семейный
Год выпуска: 1939
Продолжительность: 01:10:08
Перевод: Не требуется
Cубтитры: нет
Оригинальная аудиодорожка: русский
Режиссер: Александр Роу
В ролях:
Георгий Милляр, Сергей Столяров, Валентина Сорогожская, Лев Потемкин, Никита Кондратьев, Ирина Зарубина, Лидия Сухаревская, Татьяна Барышева, Мария Барабанова, Л. Скавронская...
Описание:
Задумал отец женить трех своих сыновей. Вышли братья в чистое поле и пустили стрелы в разные стороны. Стрела старшего сына упала на боярский двор, к боярской дочери, стрела среднего сына — упала на двор купеческой, а стрела Ивана, младшего сына упала на болото к лягушке-квакушке…





Источник: DVD5 R5
Качество видео: DVDRip
Формат видео: AVI
Виде: 704x528 (4:3), 25 fps, XviD ~ 1343 kbps avg, 0.145 bit/pixel
Аудио: 48 kHz, MP3 2.0, 128 kbps
Раздача от:
Общее
Полное имя : Vasilisa.Prekrasnaya.1939.DVDRip-745_[New-team]_by_AVP_Studio.avi
Формат : AVI
Формат/Информация : Audio Video Interleave
Размер файла : 743 Мбайт
Продолжительность : 1 ч. 10 м.
Общий поток : 1481 Кбит/сек
Программа кодирования : VirtualDubModRus 1.5.10.2 (build 2542/release)
Библиотека кодирования : VirtualDubMod build 2542/release
Видео
Идентификатор : 0
Формат : MPEG-4 Visual
Профиль формата : Advanced Simple@L5
Параметр BVOP формата : 1
Параметр QPel формата : Нет
Параметр GMC формата : Без точки перехода
Параметр матрицы формата : Выборочная
Идентификатор кодека : XVID
Идентификатор кодека/Подсказка : XviD
Продолжительность : 1 ч. 10 м.
Битрейт : 1343 Кбит/сек
Ширина : 704 пикселя
Высота : 528 пикселей
Соотношение сторон : 4:3
Частота кадров : 25,000 кадров/сек
Цветовое пространство : YUV
Субдискретизация насыщенности : 4:2:0
Битовая глубина : 8 бит
Тип развёртки : Прогрессивная
Метод сжатия : С потерями
Бит/(Пиксели*Кадры) : 0.145
Размер потока : 674 Мбайт (91%)
Библиотека кодирования : XviD 73
Аудио
Идентификатор : 1
Формат : MPEG Audio
Версия формата : Version 1
Профиль формата : Layer 3
Идентификатор кодека : 55
Идентификатор кодека/Подсказка : MP3
Продолжительность : 1 ч. 10 м.
Вид битрейта : Постоянный
Битрейт : 128 Кбит/сек
Каналы : 2 канала
Частота : 48,0 КГц
Метод сжатия : С потерями
Размер потока : 64,2 Мбайт (9%)
Выравнивание : Соединение по промежуткам
Продолжительность промежутка : 40 мс. (1,00 видеокадр)
Время предзагрузки промежутка : 504 мс.
Библиотека кодирования : LAME3.99r
Настройки программы : -m s -V 4 -q 2 -lowpass 17 -b 128





   Похожие торренты   Торрент   Размер 
В этой теме нет новых непрочитанных сообщений. Василиса Прекрасная (1939) DVDRip от New-Team

192 | 23

1.09 ГБ

В этой теме нет новых непрочитанных сообщений. Василиса Прекрасная (1939) DVDRip-AVC от New-Team

102 | 14

1.09 ГБ

В этой теме нет новых непрочитанных сообщений. Василиса Прекрасная (1939) DVDRip

39 | 6

1.37 ГБ

В этой теме нет новых непрочитанных сообщений. Василиса Прекрасная (1977) DVDRip-AVC

13 | 1

204.74 МБ

В этой теме нет новых непрочитанных сообщений. Василиса Прекрасная (1977) DVDRip-AVC от SDIncorporation

49 | 3

293.38 МБ

В этой теме нет новых непрочитанных сообщений. Василиса Прекрасная (1989) PNG от RG Superdetki

37 | 4

185.72 МБ

В этой теме нет новых непрочитанных сообщений. Василиса Прекрасная (1977) HDTVRip 720p от SDIncorporation

74 | 8

626.5 МБ




Вы не можете начинать темы
Вы не можете отвечать на сообщения
Вы не можете редактировать свои сообщения
Вы не можете удалять свои сообщения
Вы не можете добавлять вложения

Перейти:  
Для Мосгорсуда, Роскомнадзора и рекламодателей: mosgorsud-torrent[собачка]yandex.ru
 Вход
ppkBB3cker v.2 © 2008-2014 @ PPK
[ Time : 0.043s | 16 Queries | GZIP : Off ]

cron