img image001 image001 image001 image001 image001 image001 image001 image001 image001 image001 image001 image001 image001 image001 image001

Planets Sun Sun Sun
Статистика раздачи
Автор: Nickolas3434 | Размер: 1.09 ГБ | Добавлен: 07 дек 2014
Раздают: 268    Качают: 8
Скачать торрент
Скачать торрент
Описание торрента

СообщениеДобавлено: 07 дек 2014 

Оригинальное название: Снегурочку вызывали?
Год выхода: 1985
Жанр: драма, комедия
Режиссер: Валентин Морозов
В ролях: Ирина Алферова, Владимир Меньшов, Ольга Волкова, Иван Краско, Николай Лавров, Николай Ивановский, Константин Судинщиков, Андрей Ургант, Георгий Штиль, Валерий Кравченко, Олег Ефремов, Станислав Соколов
О фильме:
Лирическая история происходит в канун Нового года: водитель автобуса соглашается заменить заболевшего актера и сыграть роль Деда Мороза. Он знакомится со Снегурочкой – одинокой, как и он сам, не слишком удачливой в личной жизни актрисой...

Страна: СССР
Студия: Ленфильм
Продолжительность: 01:04:30
Перевод: Не требуется
Файл
Кодек: XviD
Качество: SATRip
Видео: 2211 Кбит/с, 704x512, 25.000 кадр/с
Звук: AC3, 2 ch, 192 Кбит/с
Полное имя : Snegurochku.vizivaly.1985.XviD.SATRip.avi
Формат : AVI
Формат/Информация : Audio Video Interleave
Размер файла : 1,09 Гбайт
Продолжительность : 1 ч. 4 м.
Общий поток : 2412 Кбит/сек
Название фильма : Снегурочку вызывали? [1985] SATRip
Жанр : Drama, Comedy
Программа кодирования : VirtualDubMod 1.5.10.3 | www.virtualdub-fr.org || (build 2550/release)
Формат оригинала/Имя : Movie
Видео
Идентификатор : 0
Формат : MPEG-4 Visual
Профиль формата : Advanced Simple@L5
Параметр BVOP формата : 1
Параметр QPel формата : Нет
Параметр GMC формата : Без точки перехода
Параметр матрицы формата : Выборочная
Идентификатор кодека : XVID
Идентификатор кодека/Подсказка : XviD
Продолжительность : 1 ч. 4 м.
Битрейт : 2211 Кбит/сек
Ширина : 704 пикселя
Высота : 512 пикселей
Соотношение сторон : 1,375
Частота кадров : 25,000 кадров/сек
Цветовое пространство : YUV
Субдискретизация насыщенности : 4:2:0
Битовая глубина : 8 бит
Тип развёртки : Прогрессивная
Метод сжатия : С потерями
Бит/(Пиксели*Кадры) : 0.245
Размер потока : 1020 Мбайт (92%)
Библиотека кодирования : XviD 64
Аудио
Идентификатор : 1
Формат : AC-3
Формат/Информация : Audio Coding 3
Расширение режима : CM (complete main)
Параметр Endianness формата : Big
Идентификатор кодека : 2000
Продолжительность : 1 ч. 4 м.
Вид битрейта : Постоянный
Битрейт : 192 Кбит/сек
Каналы : 2 канала
Расположение каналов : Front: L R
Частота : 48,0 КГц
Битовая глубина : 16 бит
Метод сжатия : С потерями
Размер потока : 88,6 Мбайт (8%)
Выравнивание : Разделение по промежуткам
Продолжительность промежутка : 40 мс. (1,00 видеокадр)
Время предзагрузки промежутка : 500 мс.




------------------------------------------------------------
Сравнение с раздачей
------------------------------------------------------------



   Похожие торренты   Торрент   Размер 
В этой теме нет новых непрочитанных сообщений. Снегурочку вызывали? (1985) SATRip-AVC

57 | 8

1.14 ГБ

В этой теме нет новых непрочитанных сообщений. Снегурочку вызывали? (1985) SATRip от RG MixTorrent

3 | 6

1.22 ГБ

В этой теме нет новых непрочитанных сообщений. Врача вызывали? (2011) SATRip - BigFANGroup

0 | 2

1.26 ГБ

В этой теме нет новых непрочитанных сообщений. Без обмана. Врача не вызывали ? [01] [02.09] (2015) SATRip

11 | 2

542.06 МБ

В этой теме нет новых непрочитанных сообщений. Без обмана. Врача не вызывали ? [01-02] (2015) SATRip, WEBRip

24 | 7

977.97 МБ

В этой теме нет новых непрочитанных сообщений. Среда обитания. Мастера вызывали? (2012) SATRip от RiperAM

4 | 2

608.45 МБ

В этой теме нет новых непрочитанных сообщений. Врача вызывали? (2011) DVDRip от NovaLan

48 | 29

1.46 ГБ




Вы не можете начинать темы
Вы не можете отвечать на сообщения
Вы не можете редактировать свои сообщения
Вы не можете удалять свои сообщения
Вы не можете добавлять вложения

Перейти:  
Для Мосгорсуда, Роскомнадзора и рекламодателей: mosgorsud-torrent[собачка]yandex.ru
 Вход
ppkBB3cker v.2 © 2008-2014 @ PPK
[ Time : 0.530s | 16 Queries | GZIP : Off ]

Торрент трекер RUTOR.IN, Не можете зайти на rutor.org? Какой новый адрес рутор? Какое зеркало рутор? Не работает rutor.org и зеркала? Тогда наш торрент специально для вас. Rutor.in неофициальное зеркало rutor. В случае если у Вас заблокирован rutor или вдруг Вы не можете на него зайти, то Вы без труда сможете скачать бесплатно и без рекламы последние новинки кино, игр, сериалов и прочего у нас, на Rutor.in. Не нужно использовать прокси, чтобы зайти на рутор, достаточно воспользоваться нашим ресурсом. Все новые фильмы, игры, сериалы, книги и музыка за 2013 и 2014 годы через торрент бесплатно. Скачивайте фильмы в хорошем качестве, игры для пк, xbox, playstation без регистрации. У нас вы найдете новые Зарубежные сериалы и Русские сериалы 2013, 2014, 2015 годов. Оставайтесь с нами, качайте любимые фильмы, игры, сериалы, книги и музыку.
cron