img image001 image001 image001 image001 image001 image001 image001 image001 image001 image001 image001 image001 image001 image001 image001

Planets Sun Sun Sun
Статистика раздачи
Автор: Nickolas3434 | Размер: 1.47 ГБ | Добавлен: 06 дек 2014, 20:37
Раздают: 798    Качают: 37
Скачать торрент
Скачать торрент
Описание торрента

СообщениеДобавлено: 06 дек 2014, 20:37 

Информация о фильме
Название: Срочно! Ищу мужа
Год выхода: 2011
Жанр: Мелодрама
Режиссёр: Алина Чеботарева
В ролях: Антон Макарский, Марина Александрова, Римма Зюбина, Олег Масленников, Владимир Гладкий, Нина Антонова, Олег Савкин, Янина Соколова, Сергей Бондарчук
О фильме:
Милая девушка Лена Лучкина живёт в маленьком городке, работает врачом в поликлинике. Мать Лены мечтает выдать дочь замуж и даже нашла для неё подходящую партию. Сергей Романович не молод, зато у него приличный доход и серьёзные намерения. Доводы Лены против этого брака мать и слышать не хочет. И тогда Лена показывает паспорт, а там - штамп и имя мужа - Антон Викторович Набоков. Тем временем Антон Викторович Набоков после окончания МГИМО ждёт назначения на дипслужбу за рубеж, о котором хлопочет его отец - видный политик. И когда назначение уже почти подписано, отец узнаёт, что Антон женат!

Страна: Россия
Студия: Кинокомпания "УПС"
Продолжительность: 01:32:18
Перевод: Не требуется
Файл
Кодек: XviD
Качество: HDTVRip [Исходник: HDTV (1080i)]
Видео: XviD, 2086 Кбит/с, 720x400, 25 кадр/с
Звук: Русский, Dolby AC3, 48000 Гц, 192 Кбит/с, 2 канала (Стерео)
Субтитры: Нет

General
Complete name : Srochno.Ischu.muzha.2011.HDTVRip.avi
Format : AVI
Format/Info : Audio Video Interleave
File size : 1.47 GiB
Duration : 1h 32mn
Overall bit rate : 2 286 Kbps
Movie name : Срочно! Ищу мужа (2011) HDTVRip
Genre : Мелодрама
Recorded date : 06.12.2014
Writing application : VirtualDubMod 1.5.10.3 (build 2550/release)
Writing library : VirtualDubMod build 2550/release
Copyright : rip by ivandubskoj
Video
ID : 0
Format : MPEG-4 Visual
Format profile : Advanced Simple@L5
Format settings, BVOP : 1
Format settings, QPel : No
Format settings, GMC : No warppoints
Format settings, Matrix : Default (MPEG)
Codec ID : XVID
Codec ID/Hint : XviD
Duration : 1h 32mn
Bit rate : 2 086 Kbps
Width : 720 pixels
Height : 400 pixels
Display aspect ratio : 16:9
Frame rate : 25.000 fps
Color space : YUV
Chroma subsampling : 4:2:0
Bit depth : 8 bits
Scan type : Progressive
Compression mode : Lossy
Bits/(Pixel*Frame) : 0.290
Stream size : 1.34 GiB (91%)
Writing library : XviD 73
Audio
ID : 1
Format : AC-3
Format/Info : Audio Coding 3
Mode extension : CM (complete main)
Codec ID : 2000
Duration : 1h 32mn
Bit rate mode : Constant
Bit rate : 192 Kbps
Channel(s) : 2 channels
Channel positions : Front: L R
Sampling rate : 48.0 KHz
Bit depth : 16 bits
Compression mode : Lossy
Stream size : 127 MiB (8%)
Alignment : Split accross interleaves
Interleave, duration : 64 ms (1.60 video frames)
Interleave, preload duration : 500 ms
Title : Russian

Автор рипа - ivandubskoj



   Похожие торренты   Торрент   Размер 
В этой теме нет новых непрочитанных сообщений. Срочно! Ищу мужа (2011) HDTVRip от ivandubskoj

1543 | 10

745.99 МБ

В этой теме нет новых непрочитанных сообщений. Срочно! Ищу мужа (2011) SATRip от КинозалSAT

95 | 4

1.37 ГБ

В этой теме нет новых непрочитанных сообщений. Срочно! Ищу мужа (2011) SATRip от КинозалSAT

20 | 5

700.04 МБ

В этой теме нет новых непрочитанных сообщений. Срочно! Ищу мужа (2011) HDTV 1080p от MediaClub

83 | 19

4.17 ГБ

В этой теме нет новых непрочитанных сообщений. Срочно В Номер 3. На Службе Закона [01-12 из 12] (2011) DVDRip

95 | 22

6.5 ГБ

В этой теме нет новых непрочитанных сообщений. Спасти мужа [01 из 04] (2011) SATRip

0 | 11

514.99 МБ

В этой теме нет новых непрочитанных сообщений. Спасти мужа [01-04 из 4] (2011) SATRip от КинозалSAT

79 | 8

1.95 ГБ




Вы не можете начинать темы
Вы не можете отвечать на сообщения
Вы не можете редактировать свои сообщения
Вы не можете удалять свои сообщения
Вы не можете добавлять вложения

Перейти:  
Для Мосгорсуда, Роскомнадзора и рекламодателей: mosgorsud-torrent[собачка]yandex.ru
Настройки
ppkBB3cker v.2 © 2008-2014 @ PPK
[ Time : 0.594s | 16 Queries | GZIP : On ]
CGP [Extreme] output time : 0.00018s | 0 Queries | GZIP : On

Торрент трекер RUTOR.IN, Не можете зайти на rutor.org? Какой новый адрес рутор? Какое зеркало рутор? Не работает rutor.org и зеркала? Тогда наш торрент специально для вас. Rutor.in неофициальное зеркало rutor. В случае если у Вас заблокирован rutor или вдруг Вы не можете на него зайти, то Вы без труда сможете скачать бесплатно и без рекламы последние новинки кино, игр, сериалов и прочего у нас, на Rutor.in. Не нужно использовать прокси, чтобы зайти на рутор, достаточно воспользоваться нашим ресурсом. Все новые фильмы, игры, сериалы, книги и музыка за 2013 и 2014 годы через торрент бесплатно. Скачивайте фильмы в хорошем качестве, игры для пк, xbox, playstation без регистрации. У нас вы найдете новые Зарубежные сериалы и Русские сериалы 2013, 2014, 2015 годов. Оставайтесь с нами, качайте любимые фильмы, игры, сериалы, книги и музыку.