img image001 image001 image001 image001 image001 image001 image001 image001 image001 image001 image001 image001 image001 image001 image001

Planets Sun Sun Sun
Статистика раздачи
Автор: Nickolas3434 | Размер: 745.76 МБ | Добавлен: 07 дек 2014
Раздают: 547    Качают: 36
Скачать торрент
Скачать торрент
Описание торрента

СообщениеДобавлено: 07 дек 2014 

Информация о фильме
Оригинальное название: Другой берег
Год выхода: 2014
Жанр: Драма, мелодрама
Режиссёр: Владимир Басов мл., Ольга Басова
В ролях: Леонид Архангельский, Мария Аниканова, Егор Баринов, Андрей Казаков, Полина Филоненко, Анна Скиданова, Никита Пикалов
О фильме:
Блистательная Ксения Конюхова, выпускница консерватории и МГИМО, отзывается от карьеры дипломата и возвращается в родной городок из-за болезни отца. Там ее жизнь круто изменяется: она начинает свой бизнес, выходит замуж и становится одной из самых преуспевающих женщин. У нее есть все: семья, верная подруга, большой дом, деньги. Ксении завидуют. Многим кажется, что она рождена для счастья, везения и радостей. Всё эти иллюзии разрушаются в самый неподходящий момент: на свадьбе ее дочери. Ксения исчезает...

Страна: Россия
Студия: Кинокомпания "АРТ экспресс"
Продолжительность: 01:35:47
Перевод: Не требуется
Качество: HDTVRip [Исходник: HDTV (1080i)]
Видео: XviD, 951 Кбит/с, 656x368 (16:9), 25 кадр/с
Аудио: Русский, MP3, 48000 Гц, 128 Кбит/с, 2 канала (Стерео)

General
Complete name : Drugoy.bereg.2014.HDTVRip.avi
Format : AVI
Format/Info : Audio Video Interleave
File size : 746 MiB
Duration : 1h 35mn
Overall bit rate : 1 089 Kbps
Writing application : VirtualDubMod 1.5.10.3 (build 2550/release)
Writing library : VirtualDubMod build 2550/release
Copyright : rip by ivandubskoj
Video
ID : 0
Format : MPEG-4 Visual
Format profile : Advanced Simple@L5
Format settings, BVOP : 2
Format settings, QPel : No
Format settings, GMC : No warppoints
Format settings, Matrix : Custom
Codec ID : XVID
Codec ID/Hint : XviD
Duration : 1h 35mn
Bit rate : 951 Kbps
Width : 656 pixels
Height : 368 pixels
Display aspect ratio : 16:9
Frame rate : 25.000 fps
Color space : YUV
Chroma subsampling : 4:2:0
Bit depth : 8 bits
Scan type : Progressive
Compression mode : Lossy
Bits/(Pixel*Frame) : 0.158
Stream size : 651 MiB (87%)
Writing library : XviD 73
Audio
ID : 1
Format : MPEG Audio
Format version : Version 1
Format profile : Layer 3
Codec ID : 55
Codec ID/Hint : MP3
Duration : 1h 35mn
Bit rate mode : Constant
Bit rate : 128 Kbps
Channel(s) : 2 channels
Sampling rate : 48.0 KHz
Compression mode : Lossy
Stream size : 87.7 MiB (12%)
Alignment : Aligned on interleaves
Interleave, duration : 40 ms (1.00 video frame)
Interleave, preload duration : 504 ms
Writing library : LAME3.99r
Encoding settings : -m s -V 4 -q 0 -lowpass 17 -b 128



Автор рипа - ivandubskoj



   Похожие торренты   Торрент   Размер 
В этой теме нет новых непрочитанных сообщений. Другой берег (2014) HDTVRip-AVC от New-Team

620 | 79

1.46 ГБ

В этой теме нет новых непрочитанных сообщений. Другой берег (2014) HDTVRip от Files-x

1963 | 63

1.37 ГБ

В этой теме нет новых непрочитанных сообщений. Другой берег (2014) HDTVRip 720p от MediaClub

156 | 18

2.43 ГБ

В этой теме нет новых непрочитанных сообщений. Другой берег (2014) HDTV 1080i от MediaClub

91 | 16

5.73 ГБ

В этой теме нет новых непрочитанных сообщений. Другой берег / Gagma napiri (2009) DVDRip от Киномагия

3 | 2

1.37 ГБ

В этой теме нет новых непрочитанных сообщений. В наше время. Александр Михайлов. Увольнение на берег [27.03] (2014) HDTVRip 720p от waPBX

7 | 4

527.89 МБ

В этой теме нет новых непрочитанных сообщений. Берег левый, берег правый / Rive droite, rive gauche (1984) DVDRip-AVC

3 | 3

1.58 ГБ




Вы не можете начинать темы
Вы не можете отвечать на сообщения
Вы не можете редактировать свои сообщения
Вы не можете удалять свои сообщения
Вы не можете добавлять вложения

Перейти:  
Для Мосгорсуда, Роскомнадзора и рекламодателей: mosgorsud-torrent[собачка]yandex.ru
 Вход
ppkBB3cker v.2 © 2008-2014 @ PPK
[ Time : 0.040s | 15 Queries | GZIP : Off ]

Торрент трекер RUTOR.IN, Не можете зайти на rutor.org? Какой новый адрес рутор? Какое зеркало рутор? Не работает rutor.org и зеркала? Тогда наш торрент специально для вас. Rutor.in неофициальное зеркало rutor. В случае если у Вас заблокирован rutor или вдруг Вы не можете на него зайти, то Вы без труда сможете скачать бесплатно и без рекламы последние новинки кино, игр, сериалов и прочего у нас, на Rutor.in. Не нужно использовать прокси, чтобы зайти на рутор, достаточно воспользоваться нашим ресурсом. Все новые фильмы, игры, сериалы, книги и музыка за 2013 и 2014 годы через торрент бесплатно. Скачивайте фильмы в хорошем качестве, игры для пк, xbox, playstation без регистрации. У нас вы найдете новые Зарубежные сериалы и Русские сериалы 2013, 2014, 2015 годов. Оставайтесь с нами, качайте любимые фильмы, игры, сериалы, книги и музыку.