img image001 image001 image001 image001 image001 image001 image001 image001 image001 image001 image001 image001 image001 image001 image001

Planets Sun Sun Sun
Статистика раздачи
Автор: Nickolas3434 | Размер: 1.46 ГБ | Добавлен: 08 дек 2014
Раздают: 460    Качают: 22
Скачать торрент
Скачать торрент
Описание торрента

СообщениеДобавлено: 08 дек 2014 

Страна: СССР
Производство: Мосфильм
Жанр: боевик, драма, военный, история
Год выпуска: 1938
Продолжительность: 01:43:33
Перевод: Не требуется
Cубтитры: нет
Оригинальная аудиодорожка: русский
Режиссер: Сергей Эйзенштейн, Дмитрий Васильев, Борис Иванов
В ролях:
Николай Черкасов, Андрей Абрикосов, Дмитрий Орлов, Николай Охлопков, Варвара Массалитинова, Владимир Ершов, Сергей Блинников, Иван Лагутин, Лев Фенин, Наум Рогожин, Василий Новиков, Вера Ивашова, Александра Данилова, Николай Арский...
Описание:
На западные рубежи Руси наступают войска Тевтонского Ордена. Они захватывают Псков, мучают и убивают местных жителей. Рыцари заранее делят ещё не завоеванные русские земли, присваивая себе титулы князей и надеясь на поддержку Папы Римского. Новгородский люд на вече решает собирать дружину и звать на командование ей опытного полководца князя Александра, прозванного Невским. Двое богатырей — Гаврила Алексич и Васька Буслаев (реальные личности) — сватаются к одной девице, и она решает, что выберет того, кто лучше покажет себя в битве. Войска сходятся к берегам замёрзшего Чудского озера. Перед боем один дружинник рассказывает князю басню о лисице, застрявшей в развилке дерева, куда её заманил заяц. Александр поступает похожим образом: строит свои войска клещами, в то время как «кабан» тевтонцев наступает прямо по центру. Русичи окружают врага, зажимают в «тиски» и разбивают его. Бросившиеся в бегство немцы тонут, проламывая тяжелыми доспехами лёд. Предводители агрессоров попадают в плен…





Источник: DVD9 R5
Качество видео: DVDRip
Формат видео: AVI
Виде: 704x528 (4:3), 25 fps, XviD ~ 1811 kbps avg, 0.195 bit/pixel
Аудио: 48 kHz, Dolby Digital AC3 2.0, 192 kbps
Раздача от:
Общее
Полное имя : Aleksandr.Nevskiy.1938.DVDRip_[New-team]_by_AVP_Studio.avi
Формат : AVI
Формат/Информация : Audio Video Interleave
Размер файла : 1,46 Гбайт
Продолжительность : 1 ч. 43 м.
Общий поток : 2013 Кбит/сек
Программа кодирования : VirtualDubModRus 1.5.10.2 (build 2542/release)
Библиотека кодирования : VirtualDubMod build 2542/release
Видео
Идентификатор : 0
Формат : MPEG-4 Visual
Профиль формата : Advanced Simple@L5
Параметр BVOP формата : 1
Параметр QPel формата : Нет
Параметр GMC формата : Без точки перехода
Параметр матрицы формата : Выборочная
Идентификатор кодека : XVID
Идентификатор кодека/Подсказка : XviD
Продолжительность : 1 ч. 43 м.
Битрейт : 1811 Кбит/сек
Ширина : 704 пикселя
Высота : 528 пикселей
Соотношение сторон : 4:3
Частота кадров : 25,000 кадров/сек
Цветовое пространство : YUV
Субдискретизация насыщенности : 4:2:0
Битовая глубина : 8 бит
Тип развёртки : Прогрессивная
Метод сжатия : С потерями
Бит/(Пиксели*Кадры) : 0.195
Размер потока : 1,31 Гбайт (90%)
Библиотека кодирования : XviD 73
Аудио
Идентификатор : 1
Формат : AC-3
Формат/Информация : Audio Coding 3
Расширение режима : CM (complete main)
Параметр Endianness формата : Big
Идентификатор кодека : 2000
Продолжительность : 1 ч. 43 м.
Вид битрейта : Постоянный
Битрейт : 192 Кбит/сек
Каналы : 2 канала
Расположение каналов : Front: L R
Частота : 48,0 КГц
Битовая глубина : 16 бит
Метод сжатия : С потерями
Размер потока : 142 Мбайт (10%)
Выравнивание : Разделение по промежуткам
Продолжительность промежутка : 40 мс. (1,00 видеокадр)
Время предзагрузки промежутка : 500 мс





   Похожие торренты   Торрент   Размер 
В этой теме нет новых непрочитанных сообщений. Александр Невский (1938) DVDRip-AVC от New-Team

426 | 49

1.46 ГБ

В этой теме нет новых непрочитанных сообщений. Александр Невский (1938) DVDRip от New-Team

43 | 9

745.92 МБ

В этой теме нет новых непрочитанных сообщений. Александр Невский (1938) DVDRip

540 | 11

1.37 ГБ

В этой теме нет новых непрочитанных сообщений. Александр Невский (1938) DVDRip от GeneralFilm

17 | 17

703.46 МБ

В этой теме нет новых непрочитанных сообщений. Александр Невский (1938) DVDRip-AVC от ExKinoRay

114 | 12

2.89 ГБ

В этой теме нет новых непрочитанных сообщений. История войн: Александр Невский (2009) PC

243 | 20

4.33 ГБ

В этой теме нет новых непрочитанных сообщений. Александр Невский. Победа над смертью (2010) WEBRip

33 | 9

107.8 МБ




Вы не можете начинать темы
Вы не можете отвечать на сообщения
Вы не можете редактировать свои сообщения
Вы не можете удалять свои сообщения
Вы не можете добавлять вложения

Перейти:  
Для Мосгорсуда, Роскомнадзора и рекламодателей: mosgorsud-torrent[собачка]yandex.ru
 Вход
ppkBB3cker v.2 © 2008-2014 @ PPK
[ Time : 0.049s | 15 Queries | GZIP : Off ]

Торрент трекер RUTOR.IN, Не можете зайти на rutor.org? Какой новый адрес рутор? Какое зеркало рутор? Не работает rutor.org и зеркала? Тогда наш торрент специально для вас. Rutor.in неофициальное зеркало rutor. В случае если у Вас заблокирован rutor или вдруг Вы не можете на него зайти, то Вы без труда сможете скачать бесплатно и без рекламы последние новинки кино, игр, сериалов и прочего у нас, на Rutor.in. Не нужно использовать прокси, чтобы зайти на рутор, достаточно воспользоваться нашим ресурсом. Все новые фильмы, игры, сериалы, книги и музыка за 2013 и 2014 годы через торрент бесплатно. Скачивайте фильмы в хорошем качестве, игры для пк, xbox, playstation без регистрации. У нас вы найдете новые Зарубежные сериалы и Русские сериалы 2013, 2014, 2015 годов. Оставайтесь с нами, качайте любимые фильмы, игры, сериалы, книги и музыку.