img image001 image001 image001 image001 image001 image001 image001 image001 image001 image001 image001 image001 image001 image001 image001

Planets Sun Sun Sun
Статистика раздачи
Автор: Nickolas3434 | Размер: 745.92 МБ | Добавлен: 07 дек 2014
Раздают: 40    Качают: 8
Скачать торрент
Скачать торрент
Описание торрента

СообщениеДобавлено: 07 дек 2014 

Страна: СССР
Производство: Мосфильм
Жанр: боевик, драма, военный, история
Год выпуска: 1938
Продолжительность: 01:43:33
Перевод: Не требуется
Cубтитры: нет
Оригинальная аудиодорожка: русский
Режиссер: Сергей Эйзенштейн, Дмитрий Васильев, Борис Иванов
В ролях:
Николай Черкасов, Андрей Абрикосов, Дмитрий Орлов, Николай Охлопков, Варвара Массалитинова, Владимир Ершов, Сергей Блинников, Иван Лагутин, Лев Фенин, Наум Рогожин, Василий Новиков, Вера Ивашова, Александра Данилова, Николай Арский...
Описание:
На западные рубежи Руси наступают войска Тевтонского Ордена. Они захватывают Псков, мучают и убивают местных жителей. Рыцари заранее делят ещё не завоеванные русские земли, присваивая себе титулы князей и надеясь на поддержку Папы Римского. Новгородский люд на вече решает собирать дружину и звать на командование ей опытного полководца князя Александра, прозванного Невским. Двое богатырей — Гаврила Алексич и Васька Буслаев (реальные личности) — сватаются к одной девице, и она решает, что выберет того, кто лучше покажет себя в битве. Войска сходятся к берегам замёрзшего Чудского озера. Перед боем один дружинник рассказывает князю басню о лисице, застрявшей в развилке дерева, куда её заманил заяц. Александр поступает похожим образом: строит свои войска клещами, в то время как «кабан» тевтонцев наступает прямо по центру. Русичи окружают врага, зажимают в «тиски» и разбивают его. Бросившиеся в бегство немцы тонут, проламывая тяжелыми доспехами лёд. Предводители агрессоров попадают в плен…





Источник: DVD9 R5
Качество видео: DVDRip
Формат видео: AVI
Виде: 576x432 (4:3), 25 fps, XviD ~ 869 kbps avg, 0.140 bit/pixel
Аудио: 48 kHz, MP3 2.0, 128 kbps
Раздача от:
Общее
Полное имя : Aleksandr.Nevskiy.1938.DVDRip-745_[New-team]_by_AVP_Studio.avi
Формат : AVI
Формат/Информация : Audio Video Interleave
Размер файла : 746 Мбайт
Продолжительность : 1 ч. 43 м.
Общий поток : 1007 Кбит/сек
Программа кодирования : VirtualDubModRus 1.5.10.2 (build 2542/release)
Библиотека кодирования : VirtualDubMod build 2542/release
Видео
Идентификатор : 0
Формат : MPEG-4 Visual
Профиль формата : Advanced Simple@L5
Параметр BVOP формата : 1
Параметр QPel формата : Нет
Параметр GMC формата : Без точки перехода
Параметр матрицы формата : Выборочная
Идентификатор кодека : XVID
Идентификатор кодека/Подсказка : XviD
Продолжительность : 1 ч. 43 м.
Битрейт : 869 Кбит/сек
Ширина : 576 пикселей
Высота : 432 пикселя
Соотношение сторон : 4:3
Частота кадров : 25,000 кадров/сек
Цветовое пространство : YUV
Субдискретизация насыщенности : 4:2:0
Битовая глубина : 8 бит
Тип развёртки : Прогрессивная
Метод сжатия : С потерями
Бит/(Пиксели*Кадры) : 0.140
Размер потока : 644 Мбайт (86%)
Библиотека кодирования : XviD 73
Аудио
Идентификатор : 1
Формат : MPEG Audio
Версия формата : Version 1
Профиль формата : Layer 3
Идентификатор кодека : 55
Идентификатор кодека/Подсказка : MP3
Продолжительность : 1 ч. 43 м.
Вид битрейта : Постоянный
Битрейт : 128 Кбит/сек
Каналы : 2 канала
Частота : 48,0 КГц
Метод сжатия : С потерями
Размер потока : 94,8 Мбайт (13%)
Выравнивание : Соединение по промежуткам
Продолжительность промежутка : 40 мс. (1,00 видеокадр)
Время предзагрузки промежутка : 504 мс.
Библиотека кодирования : LAME3.99r
Настройки программы : -m s -V 4 -q 2 -lowpass 17 -b 128





   Похожие торренты   Торрент   Размер 
В этой теме нет новых непрочитанных сообщений. Александр Невский (1938) DVDRip-AVC от New-Team

417 | 50

1.46 ГБ

В этой теме нет новых непрочитанных сообщений. Александр Невский (1938) DVDRip от New-Team

463 | 21

1.46 ГБ

В этой теме нет новых непрочитанных сообщений. Александр Невский (1938) DVDRip

540 | 11

1.37 ГБ

В этой теме нет новых непрочитанных сообщений. Александр Невский (1938) DVDRip-AVC от ExKinoRay

43 | 4

2.89 ГБ

В этой теме нет новых непрочитанных сообщений. Александр Невский (1938) DVDRip от GeneralFilm

17 | 17

703.46 МБ

В этой теме нет новых непрочитанных сообщений. Александр Невский (1938) WEB-DL 720р от Korsar

2 | 0

3.39 ГБ

В этой теме нет новых непрочитанных сообщений. История войн: Александр Невский (2009) PC

243 | 20

4.33 ГБ




Вы не можете начинать темы
Вы не можете отвечать на сообщения
Вы не можете редактировать свои сообщения
Вы не можете удалять свои сообщения
Вы не можете добавлять вложения

Перейти:  
Для Мосгорсуда, Роскомнадзора и рекламодателей: mosgorsud-torrent[собачка]yandex.ru
 Вход
ppkBB3cker v.2 © 2008-2014 @ PPK
[ Time : 0.053s | 16 Queries | GZIP : Off ]

cron