img image001 image001 image001 image001 image001 image001 image001 image001 image001 image001 image001 image001 image001 image001 image001

Planets Sun Sun Sun
Статистика раздачи
Автор: Nickolas3434 | Размер: 2.09 ГБ | Добавлен: 08 дек 2014
Раздают: 190    Качают: 6
Скачать торрент
Скачать торрент
Описание торрента

СообщениеДобавлено: 08 дек 2014 

Название: Ночевала тучка золотая
Жанр: драма
Год выпуска: 1989
Режиссёр: Суламбек Мамилов
В ролях: Андрюша и Володя Башкировы, Тамерлан Шатаев, Наталья Мерц, Виллор Кузнецов, Вячеслав Баранов, Иван Бортник, Ольга Семёнова, Анатолий Иванов, Николай Погодин, Володя Думчев, Андрей Алёшин, Артур Богатов, Николай Волков, Сергей Греков, Константин Лабутин, Валентина Титова, Лариса Негреева-Цесляк, Рома Барышев, Паша Гайдученко, Юра Савочкин
Описание:
По одноименной повести Анатолия Приставкина. О трагической судьбе двух братьев-сирот, в 1944 вывезенных вместе с другими детдомовцами из подмосковного города на Кавказ, откуда было депортировано чеченское население.

Страна: СССР
Продолжительность: 01:31:18
Перевод: не требуется
Файл
Качество видео: DVB
Формат видео: MPEG-PS
Видео: MPEG Video, 704х576 (4:3), 25 fps, 3015 Kbps
Аудио: MPEG Audio (Version 1) Layer 2, 48.0 KHz, 2 channels, 192 Kbps
General
Complete name : Ночевала тучка золотая [1989].mpg
Format : MPEG-PS
File size : 2.09 GiB
Duration : 1h 31mn
Overall bit rate mode : Variable
Overall bit rate : 3 273 Kbps
Video
ID : 224 (0xE0)
Format : MPEG Video
Format version : Version 2
Format profile : Main@Main
Format settings, BVOP : Yes
Format settings, Matrix : Custom
Duration : 1h 31mn
Bit rate mode : Variable
Bit rate : 3 015 Kbps
Maximum bit rate : 15.0 Mbps
Width : 704 pixels
Height : 576 pixels
Display aspect ratio : 4:3
Frame rate : 25.000 fps
Standard : PAL
Color space : YUV
Chroma subsampling : 4:2:0
Bit depth : 8 bits
Compression mode : Lossy
Bits/(Pixel*Frame) : 0.297
Stream size : 1.92 GiB (92%)
Audio
ID : 192 (0xC0)
Format : MPEG Audio
Format version : Version 1
Format profile : Layer 2
Duration : 1h 31mn
Bit rate mode : Constant
Bit rate : 192 Kbps
Channel(s) : 2 channels
Sampling rate : 48.0 KHz
Compression mode : Lossy
Delay relative to video : 13ms
Stream size : 125 MiB (6%)
Релиз от



   Похожие торренты   Торрент   Размер 
В этой теме нет новых непрочитанных сообщений. Ночевала тучка золотая (1989) TVRip

96 | 10

1.45 ГБ

В этой теме нет новых непрочитанных сообщений. Анатолий Приставкин - Ночевала тучка золотая (1987) (2006) MP3

12 | 2

537.79 МБ

В этой теме нет новых непрочитанных сообщений. VA - Золотая русская коллекция. В краю магнолий (1960-1989) MP3 от FilmRus

250 | 22

152.24 МБ

В этой теме нет новых непрочитанных сообщений. Мэри не ночевала дома / Мэ Ри, где же ты была всю ночь? / Mary Stayed Out All Night / Marry Me Mary [01x01-04] (2010) HDTVRip

0 | 20

3.11 ГБ

В этой теме нет новых непрочитанных сообщений. Золотая курица / Золотая цыпочка / Gam gai / Golden Chicken (2002) DVDRip | L1

21 | 2

2.05 ГБ

В этой теме нет новых непрочитанных сообщений. Skid Row, Ozzy Osbourne, Gorky Park, Cinderella - Moscow Music Peace Festival 1989 (1989) MP3

25 | 18

209.63 МБ

В этой теме нет новых непрочитанных сообщений. Сальвадор Дали - 1989 (1989) MP3

0 | 2

91.84 МБ




Вы не можете начинать темы
Вы не можете отвечать на сообщения
Вы не можете редактировать свои сообщения
Вы не можете удалять свои сообщения
Вы не можете добавлять вложения

Перейти:  
Для Мосгорсуда, Роскомнадзора и рекламодателей: mosgorsud-torrent[собачка]yandex.ru
 Вход
ppkBB3cker v.2 © 2008-2014 @ PPK
[ Time : 2.452s | 15 Queries | GZIP : Off ]

Торрент трекер RUTOR.IN, Не можете зайти на rutor.org? Какой новый адрес рутор? Какое зеркало рутор? Не работает rutor.org и зеркала? Тогда наш торрент специально для вас. Rutor.in неофициальное зеркало rutor. В случае если у Вас заблокирован rutor или вдруг Вы не можете на него зайти, то Вы без труда сможете скачать бесплатно и без рекламы последние новинки кино, игр, сериалов и прочего у нас, на Rutor.in. Не нужно использовать прокси, чтобы зайти на рутор, достаточно воспользоваться нашим ресурсом. Все новые фильмы, игры, сериалы, книги и музыка за 2013 и 2014 годы через торрент бесплатно. Скачивайте фильмы в хорошем качестве, игры для пк, xbox, playstation без регистрации. У нас вы найдете новые Зарубежные сериалы и Русские сериалы 2013, 2014, 2015 годов. Оставайтесь с нами, качайте любимые фильмы, игры, сериалы, книги и музыку.