img image001 image001 image001 image001 image001 image001 image001 image001 image001 image001 image001 image001 image001 image001 image001

Planets Sun Sun Sun
Статистика раздачи
Автор: Nickolas3434 | Размер: 2.18 ГБ | Добавлен: 08 дек 2014
Раздают: 546    Качают: 46
Скачать торрент
Скачать торрент
Описание торрента

СообщениеДобавлено: 08 дек 2014 

Информация о фильме
Оригинальное название: Слуга государев
Год выпуска: 2007
Жанр: Приключения, боевик, военный, исторический
Режиссёр: Олег Рясков
В ролях: Ольга Арнтгольц, Александр Бухаров, Алексей Чадов, Николай Чиндяйкин, Владислав Демченко, Ксения Князева, Валерий Маликов, Дмитрий Миллер, Елена Плаксина, Андрей Рыклин, Дарья Семёнова, Иван Шибанов, Дмитрий Шиляев, Андрей Сухов, Родион Юрин, Александр Стариков, Андрей Чубченко, Сергей Жолобов, Мария Горбань, Борис Тенин, Дарья Носик, Александр Гундарев, Елена Антипова, Дмитрий Ратомский, Андрей Балякин, Александр Самойлов, Эдуард Флёров, Александр Пятков, Александра Живова, Наталья Лесниковская, Алексей Агрызков, Екатерина Крупенина, Мария Кожевникова, Юрий Маслак, Алексей Фурсенко, Ксения Виват, Георгий Тесля-Герасимов, Геннадий Христенко, Дмитрий Мазуров, Олег Леушин
О фильме: 1709 год. Европу раздирают междоусобные войны. Францией все еще правит стареющий Людовик XIV, а подвиги мушкетеров еще не забыты. В Версале два французских дворянина, поссорившись из-за карточной игры, нарушают существующий запрет на дуэли и оказываются между тюрьмой и плахой палача. Милостью короля казнь заменена ссылкой «на пользу государства. Один из них должен отправиться на службу ко двору российского царя Петра Первого, другой - ко двору шведского короля Карла XII, чтобы шпионить в пользу Франции. Россия и Швеция находятся в состоянии войны, и герои должны прибыть к местам назначения как раз накануне Полтавской битвы. Однако оказывается, что ссылка — всего лишь предлог и на самом деле им уготовано место в первых рядах сражающихся друг против друга армий. Чтобы спасти любимого, подруга одного из героев решается на отчаянный шаг. В России тем временем ползут слухи о мистическом черном всаднике, якобы причастном к исчезновению людей… Проведенное расследование подтверждает, что загадочные появления мистического всадника - правда. Все герои встретятся при самых неожиданных обстоятельствах, пережив немало опасных приключений. Но чем закончится эта встреча? Ведь они до сих пор считают дело чести неоконченным...

Выпущено: Россия, Beta Film TV
Продолжительность: 02:05:27
Перевод: Профессиональный многоголосый (на иностранную речь)
Файл
Качество: DVDRip [Исходник: DVD-9]
Видео: XviD, 704x304 (2.35:1), 2031 Кбит/с, 25 кадр/с
Аудио: Русский, Dolby AC3, 48000 Гц, 448 Кбит/с, 6 каналов (5.1)

[*] Фильм был выпущен в более чем 20 странах, включая: Бразилию, Испанию, Италию, Германию, Нидерланды, Швецию, Францию, Китай, Индию, Турцию, ОАЭ, Австралию и ряд других.
[*] В фильме снимался фрегат «Штандарт» - историческая копия русского фрегата времён Петра I.
[*] Прототипами принца Филиппа и графа де Гиша, как ни странно, были не Филипп I Орлеанский и Арман де Грамон, граф де Гиш, которых связывали тесные отношения, но которые ко времени действия фильма (1709 год) уже умерли. В фильме показаны Филипп II Орлеанский (35 лет в 1709 году) и Антуан V де Грамон, герцог де Гиш (37 лет в 1709 году). Филипп II был сыном Филиппа I, и после смерти Людовика XIV стал регентом Франции. Герцог де Гиш принимал участие во всех военных кампаниях Людовика XIV, начиная с 1688 г., и в 1724 году стал маршалом Франции.
[*] Режиссёр фильма встречался перед началом съёмок с супругой потомка Моро де Бразе — Ириной де Бразе, живущей в родовом замке во Франции, и обсуждал с ней детали сюжета.
General
Complete name : Sluga.gosudarev.2007.DVDRip.avi
Format : AVI
Format/Info : Audio Video Interleave
Format profile : OpenDML
File size : 2.18 GiB
Duration : 2h 5mn
Overall bit rate : 2 489 Kbps
Movie name : Слуга государев (2007) DVDRip
Genre : Приключения, боевик, военный, исторический
Recorded date : 25.11.2014
Writing application : VirtualDubMod 1.5.10.3 (build 2550/release)
Writing library : VirtualDubMod build 2550/release
Copyright : rip by ivandubskoj
Video
ID : 0
Format : MPEG-4 Visual
Format profile : Advanced Simple@L5
Format settings, BVOP : 1
Format settings, QPel : No
Format settings, GMC : No warppoints
Format settings, Matrix : Default (MPEG)
Codec ID : XVID
Codec ID/Hint : XviD
Duration : 2h 5mn
Bit rate : 2 031 Kbps
Width : 704 pixels
Height : 304 pixels
Display aspect ratio : 2.35:1
Frame rate : 25.000 fps
Color space : YUV
Chroma subsampling : 4:2:0
Bit depth : 8 bits
Scan type : Progressive
Compression mode : Lossy
Bits/(Pixel*Frame) : 0.380
Stream size : 1.78 GiB (82%)
Writing library : XviD 73
Audio
ID : 1
Format : AC-3
Format/Info : Audio Coding 3
Mode extension : CM (complete main)
Codec ID : 2000
Duration : 2h 5mn
Bit rate mode : Constant
Bit rate : 448 Kbps
Channel(s) : 6 channels
Channel positions : Front: L C R, Side: L R, LFE
Sampling rate : 48.0 KHz
Bit depth : 16 bits
Compression mode : Lossy
Stream size : 402 MiB (18%)
Alignment : Split accross interleaves
Interleave, duration : 64 ms (1.60 video frames)
Interleave, preload duration : 500 ms
Title : Russian


Автор рипа - ivandubskoj



   Похожие торренты   Торрент   Размер 
В этой теме нет новых непрочитанных сообщений. Слуга государев (2007) DVD-9 | Полная версия | Лицензия

104 | 17

7.52 ГБ

В этой теме нет новых непрочитанных сообщений. Слуга государев (2007) BDRip от HQCLUB | Лицензия

104 | 8

2.18 ГБ

В этой теме нет новых непрочитанных сообщений. Слуга государев (2007) DVDRip

47 | 7

1.37 ГБ

В этой теме нет новых непрочитанных сообщений. Слуга государев (2007) DVD5

6 | 3

4.35 ГБ

В этой теме нет новых непрочитанных сообщений. Слуга государев (2007) BDRip 720p

7 | 3

4.99 ГБ

В этой теме нет новых непрочитанных сообщений. Слуга государев (2007) BDRip от Rulya74

18 | 3

2.19 ГБ

В этой теме нет новых непрочитанных сообщений. Слуга государев (2007) BDRip-AVC от 0ptimus

18 | 2

2.95 ГБ




Вы не можете начинать темы
Вы не можете отвечать на сообщения
Вы не можете редактировать свои сообщения
Вы не можете удалять свои сообщения
Вы не можете добавлять вложения

Перейти:  
Для Мосгорсуда, Роскомнадзора и рекламодателей: mosgorsud-torrent[собачка]yandex.ru
 Вход
ppkBB3cker v.2 © 2008-2014 @ PPK
[ Time : 0.987s | 15 Queries | GZIP : Off ]

Торрент трекер RUTOR.IN, Не можете зайти на rutor.org? Какой новый адрес рутор? Какое зеркало рутор? Не работает rutor.org и зеркала? Тогда наш торрент специально для вас. Rutor.in неофициальное зеркало rutor. В случае если у Вас заблокирован rutor или вдруг Вы не можете на него зайти, то Вы без труда сможете скачать бесплатно и без рекламы последние новинки кино, игр, сериалов и прочего у нас, на Rutor.in. Не нужно использовать прокси, чтобы зайти на рутор, достаточно воспользоваться нашим ресурсом. Все новые фильмы, игры, сериалы, книги и музыка за 2013 и 2014 годы через торрент бесплатно. Скачивайте фильмы в хорошем качестве, игры для пк, xbox, playstation без регистрации. У нас вы найдете новые Зарубежные сериалы и Русские сериалы 2013, 2014, 2015 годов. Оставайтесь с нами, качайте любимые фильмы, игры, сериалы, книги и музыку.