img image001 image001 image001 image001 image001 image001 image001 image001 image001 image001 image001 image001 image001 image001 image001

Planets Sun Sun Sun
Статистика раздачи
Автор: Nickolas3434 | Размер: 2.15 ГБ | Добавлен: 08 дек 2014
Раздают: 227    Качают: 38
Скачать торрент
Скачать торрент
Описание торрента

СообщениеДобавлено: 08 дек 2014 

Информация о фильме
Название: Глубокое течение
Год выхода: 2005
Жанр: Драма, Военная киноповесть
Режиссер: Маргарита Касымова, Иван Павлов
В ролях: Ярослав Иванов, Александр Беспалый, Виктор Васильев, Екатерина Васильева, Владимир Грицевский, Анатолий Гурьев, Елена Дубровская, Александр Жданович, Александр Кашперов, Зинаида Кириенко, Марина Коняшкина, Олег Коц, Вячеслав Кулаков, Митя Лабуш, Тариел Майсурадзе, Татьяна Мархель, Анна Меликова, Владимир Мищанчук, Ольга Нефедова, Виктор Рыбчинский, Александр Ткаченок, Петр Юрченков (старший), Сергей Белякович, Алёна Козырева, Иван Мацкевич, Владимир Иванов
О фильме:
Военная киноповесть по мотивам романов Ивана Шамякина "Снежные зимы" и "Глубокое течение".
Великая Отечественная война всколыхнула все мирное население белорусской земли. Проблема выстоять, защитить и освободить свой край от немецко-фашистских захватчиков стала главной и для тех, кто остался в тылу врага. Иван Антонюк – бывший заведующий отделом исполкома – становится командиром партизанского отряда. В это трудное время ему пришлось учиться принимать правильное решение в организации партизанского движения, находить единственный верный выход в сложных переплетениях военных событий.
Группа штатских во главе с ответственным работником района Иваном Антонюком получили задание взять под охрану секретный довоенный объект - запасной аэродром. Партизаны прямо из-под носа у немцев вывозят из оккупированной деревни детский дом. Молодой партизанский командир Иван Антонюк, связная Ольга, командир роты десантников Катков, бойцы-комсомольцы показаны в сложном переплетении событий первых военных месяцев. Экстремальные ситуации обнажают скрытые черты характеров героев: кто-то оказывается трусом и предателем, кто-то погибает героем, а кому-то суждено найти и потерять свою любовь...
Благодарность:
Исходник для данной раздачи, записан с цифрового наземного канала, т.е. DVB-Т, любезно предоставлен PavelDAS
За что ему большое спасибо!
Запись потока *.ts с наземного цифрового телеканала "Беларусь 3", ремукс в *.mpg программой VideoReDo.

Страна: Республика Беларусь
Студия: Беларусьфильм
Продолжительность: 01:32:05
Перевод: Не требует
Файл
Кодек: MPEG-PS
Качество: DVB
Видео: MPEG2 Video 720x576 (4:3) 25fps, 3 026 Kbps
Звук: MPEG Audio 48000Hz stereo 256kbps
Семпл
Код:
General
Complete name               : D:Художественные фильмыГлубокое течение (2005) Есть старый вариантГлубокое течение (2005).mpg
Format                      : MPEG-PS
File size                   : 2.15 GiB
Duration                    : 1h 32mn
Overall bit rate mode       : Variable
Overall bit rate            : 3 348 Kbps
Video
ID                          : 224 (0xE0)
Format                      : MPEG Video
Format version              : Version 2
Format profile              : Main@Main
Format settings, BVOP       : Yes
Format settings, Matrix     : Custom
Format settings, GOP        : M=3, N=15
Format settings, picture st : Frame
Duration                    : 1h 32mn
Bit rate mode               : Variable
Bit rate                    : 3 026 Kbps
Maximum bit rate            : 9 500 Kbps
Width                       : 720 pixels
Height                      : 576 pixels
Display aspect ratio        : 4:3
Frame rate                  : 25.000 fps
Standard                    : PAL
Color space                 : YUV
Chroma subsampling          : 4:2:0
Bit depth                   : 8 bits
Scan type                   : Interlaced
Scan order                  : Top Field First
Compression mode            : Lossy
Bits/(Pixel*Frame)          : 0.292
Time code of first frame    : 00:00:00:00
Time code source            : Group of pictures header
GOP, Open/Closed            : Open
Stream size                 : 1.95 GiB (90%)
GOP, Open/Closed of first f : Closed
Audio
ID                          : 192 (0xC0)
Format                      : MPEG Audio
Format version              : Version 1
Format profile              : Layer 2
Duration                    : 1h 32mn
Bit rate mode               : Constant
Bit rate                    : 256 Kbps
Channel(s)                  : 2 channels
Sampling rate               : 48.0 KHz
Compression mode            : Lossy
Stream size                 : 169 MiB (8%)





   Похожие торренты   Торрент   Размер 
В этой теме нет новых непрочитанных сообщений. Славянский базар 2005. Ансамбль песни и пляски Российской Армии им. А.В. Александрова (2005) DVB от AND03AND

0 | 5

988.21 МБ

В этой теме нет новых непрочитанных сообщений. Славянский базар 2005. Антология (2005) BD DVB от AND03AND

0 | 2

988.44 МБ

В этой теме нет новых непрочитанных сообщений. Встреча на Эльбе (2005) SATRip от AND03AND

25 | 9

370.28 МБ

В этой теме нет новых непрочитанных сообщений. Заповедной тропой (Беларусь) (2005) SATRip от AND03AND

60 | 16

1.61 ГБ

В этой теме нет новых непрочитанных сообщений. Александр Малинин - По дороге домой (Золотой шлягер) (2005) DVB от AND03AND

102 | 59

1.49 ГБ

В этой теме нет новых непрочитанных сообщений. Тамара Миансарова. Юбилейный вечер в концертном зале «Россия» (2005) DVB от AND03AND

28 | 11

914.76 МБ

В этой теме нет новых непрочитанных сообщений. Встречное течение [01-08] (2011) DVDRip

110 | 11

4.33 ГБ




Вы не можете начинать темы
Вы не можете отвечать на сообщения
Вы не можете редактировать свои сообщения
Вы не можете удалять свои сообщения
Вы не можете добавлять вложения

Перейти:  
Для Мосгорсуда, Роскомнадзора и рекламодателей: mosgorsud-torrent[собачка]yandex.ru
 Вход
ppkBB3cker v.2 © 2008-2014 @ PPK
[ Time : 0.032s | 15 Queries | GZIP : Off ]

Торрент трекер RUTOR.IN, Не можете зайти на rutor.org? Какой новый адрес рутор? Какое зеркало рутор? Не работает rutor.org и зеркала? Тогда наш торрент специально для вас. Rutor.in неофициальное зеркало rutor. В случае если у Вас заблокирован rutor или вдруг Вы не можете на него зайти, то Вы без труда сможете скачать бесплатно и без рекламы последние новинки кино, игр, сериалов и прочего у нас, на Rutor.in. Не нужно использовать прокси, чтобы зайти на рутор, достаточно воспользоваться нашим ресурсом. Все новые фильмы, игры, сериалы, книги и музыка за 2013 и 2014 годы через торрент бесплатно. Скачивайте фильмы в хорошем качестве, игры для пк, xbox, playstation без регистрации. У нас вы найдете новые Зарубежные сериалы и Русские сериалы 2013, 2014, 2015 годов. Оставайтесь с нами, качайте любимые фильмы, игры, сериалы, книги и музыку.