img image001 image001 image001 image001 image001 image001 image001 image001 image001 image001 image001 image001 image001 image001 image001

Planets Sun Sun Sun
Статистика раздачи
Автор: Nickolas3434 | Размер: 1.34 ГБ | Добавлен: 09 дек 2014
Раздают: 558    Качают: 8
Скачать торрент
Скачать торрент
Описание торрента

СообщениеДобавлено: 09 дек 2014 

Информация о фильме
Название: Нежный возраст
Год выхода: 2000
Жанр: Драма
Режиссер: Сергей Соловьев
В ролях: Дмитрий Соловьев, Елена Камаева, Людмила Савельева, Кирилл Лавров, Валентин Гафт, Сергей Гармаш, Андрей Панин, Николай Чиндяйкин, Томаш Бялковский, Алексей Дагаев, Ольга Сидорова, Андрей Савостьянов, Борис Гребенщиков.
Иван Громов, внук знаменитого генерала-летчика, попадает на первую чеченскую войну. Во время десанта на Ивана падает с парашюта патронный ящик, после чего, в целях выяснения посттравматической адекватности, Иван должен подробнейшим образом изложить психоаналитику свою предыдущую жизнь. События этой жизни, столь же обычной, сколь и уникальной, составляют причудливый сюжетный узор фильма…
Страна: Россия
Продолжительность: 01:50:43 ч.
Перевод: Не требуется. Оригинал
Файл
Кодек: h264
Качество: DVDRip576p.
Видео: 720x576, 4:3, 1575 кбит./сек., 25.0 кадр/сек.
Звук: Русский, AC3, 192 кбит./сек., 48.0 кГц.
Общее
Уникальный идентификатор : 169546213088299789857583195950955017993 (0x7F8D69B22359FA6CB6BFAF292F02B709)
Полное имя : D: Торрент файлы Нежный возраст.mkv
Формат : Matroska
Версия формата : Version 2
Размер файла : 1,34 Гбайт
Продолжительность : 1 ч. 50 м.
Общий поток : 1731 Кбит/сек
Программа кодирования : XviD4PSP 6.0 / 53.6.0
Библиотека кодирования : XviD4PSP 6.0 / 53.6.0
Видео
Идентификатор : 1
Формат : AVC
Формат/Информация : Advanced Video Codec
Профиль формата : High@L4.1
Параметр CABAC формата : Да
Параметр ReFrames формата : 13 кадров
Идентификатор кодека : V_MPEG4/ISO/AVC
Продолжительность : 1 ч. 50 м.
Битрейт : 1535 Кбит/сек
Ширина : 720 пикселей
Высота : 576 пикселей
Соотношение сторон : 4:3
Режим частоты кадров : Постоянный
Частота кадров : 25,000 кадров/сек
Стандарт вещания : PAL
Цветовое пространство : YUV
Субдискретизация насыщенности : 4:2:0
Битовая глубина : 8 бит
Тип развёртки : MBAFF
Бит/(Пиксели*Кадры) : 0.148
Размер потока : 1,16 Гбайт (87%)
Библиотека кодирования : x264 core 116 r2019M 9cc407d
Настройки программы : cabac=1 / ref=14 / deblock=1:-1:-1 / analyse=0x3:0x133 / me=hex / subme=9 / psy=1 / psy_rd=1.00:0.20 / mixed_ref=1 / me_range=16 / chroma_me=0 / trellis=1 / 8x8dct=1 / cqm=0 / deadzone=21,11 / fast_pskip=1 / chroma_qp_offset=-3 / threads=10 / sliced_threads=0 / nr=25 / decimate=1 / interlaced=tff / bluray_compat=0 / constrained_intra=0 / bframes=14 / b_pyramid=1 / b_adapt=2 / b_bias=0 / direct=3 / weightb=1 / open_gop=0 / weightp=0 / keyint=250 / keyint_min=25 / scenecut=40 / intra_refresh=0 / rc=2pass / mbtree=0 / bitrate=1535 / ratetol=1.0 / qcomp=0.60 / qpmin=10 / qpmax=51 / qpstep=4 / cplxblur=20.0 / qblur=0.5 / ip_ratio=1.40 / pb_ratio=1.30 / aq=1:1.00
Default : Да
Forced : Нет
Аудио
Идентификатор : 2
Формат : AC-3
Формат/Информация : Audio Coding 3
Расширение режима : CM (complete main)
Параметр Endianness формата : Big
Идентификатор кодека : A_AC3
Продолжительность : 1 ч. 50 м.
Вид битрейта : Постоянный
Битрейт : 192 Кбит/сек
Каналы : 2 канала
Расположение каналов : Front: L R
Частота : 48,0 КГц
Битовая глубина : 16 бит
Метод сжатия : С потерями
Размер потока : 152 Мбайт (11%)
Язык : English
Default : Да
Forced : Нет




   Похожие торренты   Торрент   Размер 
В этой теме нет новых непрочитанных сообщений. Нежный возраст (2000) DVDRip от Киномагия

72 | 7

1.46 ГБ

В этой теме нет новых непрочитанных сообщений. Владимир Нежный - Союз 939 (2000) FLAC

136 | 6

505.15 МБ

В этой теме нет новых непрочитанных сообщений. Нежный поцелуй / Ae Fond Kiss... (2004) DVDRip-AVC | P2

13 | 6

1.56 ГБ

В этой теме нет новых непрочитанных сообщений. Нежный коготь / The Tender Hook (2008) DVDRip

1 | 3

1.37 ГБ

В этой теме нет новых непрочитанных сообщений. Мой ласковый и нежный зверь (1978) DVDRip-AVC | Реставрация

7 | 4

1.38 ГБ

В этой теме нет новых непрочитанных сообщений. Мой ласковый и нежный зверь (1978) DVDRip от PlanetaUA

22 | 6

1.37 ГБ

В этой теме нет новых непрочитанных сообщений. Переходный возраст / How to be (2008) DVDRip

9 | 1

1.37 ГБ




Вы не можете начинать темы
Вы не можете отвечать на сообщения
Вы не можете редактировать свои сообщения
Вы не можете удалять свои сообщения
Вы не можете добавлять вложения

Перейти:  
Для Мосгорсуда, Роскомнадзора и рекламодателей: mosgorsud-torrent[собачка]yandex.ru
 Вход
ppkBB3cker v.2 © 2008-2014 @ PPK
[ Time : 0.944s | 17 Queries | GZIP : Off ]

Торрент трекер RUTOR.IN, Не можете зайти на rutor.org? Какой новый адрес рутор? Какое зеркало рутор? Не работает rutor.org и зеркала? Тогда наш торрент специально для вас. Rutor.in неофициальное зеркало rutor. В случае если у Вас заблокирован rutor или вдруг Вы не можете на него зайти, то Вы без труда сможете скачать бесплатно и без рекламы последние новинки кино, игр, сериалов и прочего у нас, на Rutor.in. Не нужно использовать прокси, чтобы зайти на рутор, достаточно воспользоваться нашим ресурсом. Все новые фильмы, игры, сериалы, книги и музыка за 2013 и 2014 годы через торрент бесплатно. Скачивайте фильмы в хорошем качестве, игры для пк, xbox, playstation без регистрации. У нас вы найдете новые Зарубежные сериалы и Русские сериалы 2013, 2014, 2015 годов. Оставайтесь с нами, качайте любимые фильмы, игры, сериалы, книги и музыку.
cron