img image001 image001 image001 image001 image001 image001 image001 image001 image001 image001 image001 image001 image001 image001 image001

Planets Sun Sun Sun
Статистика раздачи
Автор: Nickolas3434 | Размер: 1.14 ГБ | Добавлен: 10 дек 2014
Раздают: 57    Качают: 8
Скачать торрент
Скачать торрент
Описание торрента

СообщениеДобавлено: 10 дек 2014 

Оригинальное название: Снегурочку вызывали?
Год выхода: 1985
Жанр: драма, комедия
Режиссер: Валентин Морозов
В ролях: Ирина Алферова, Владимир Меньшов, Ольга Волкова, Иван Краско, Николай Лавров, Николай Ивановский, Константин Судинщиков, Андрей Ургант, Георгий Штиль, Валерий Кравченко, Олег Ефремов, Станислав Соколов
О фильме:
Лирическая история происходит в канун Нового года: водитель автобуса соглашается заменить заболевшего актера и сыграть роль Деда Мороза. Он знакомится со Снегурочкой – одинокой, как и он сам, не слишком удачливой в личной жизни актрисой...

Страна: СССР
Студия: Ленфильм
Продолжительность: 01:04:30
Перевод: Не требуется
Файл
Кодек: h.264
Качество: SATRip-AVC
Видео: 2339 Кбит/с, 712x556@750x556, 25.000 кадр/с
Звук: AC3, 2 ch, 192 Кбит/с
Уникальный идентификатор : 216202103486834078090757601298634141284 (0xA2A702B113B47E45B5ED8E3B5E5E6E64)
Полное имя : Snegurochku.vizivaly.1985.x264.SATRip-AVC.mkv
Формат : Matroska
Версия формата : Version 2
Размер файла : 1,14 Гбайт
Продолжительность : 1 ч. 4 м.
Общий поток : 2533 Кбит/сек
Название фильма : Снегурочку вызывали? [1985] SATRip-AVC
Дата кодирования : UTC 2014-12-09 08:13:19
Программа кодирования : mkvmerge v6.6.0 ('The Edge Of The In Between') built on Dec 1 2013 17:55:00
Библиотека кодирования : libebml v1.3.0 + libmatroska v1.4.1
Видео
Идентификатор : 1
Формат : AVC
Формат/Информация : Advanced Video Codec
Профиль формата : High@L4.1
Параметр CABAC формата : Да
Параметр ReFrames формата : 11 кадров
Идентификатор кодека : V_MPEG4/ISO/AVC
Продолжительность : 1 ч. 4 м.
Битрейт : 2339 Кбит/сек
Ширина : 712 пикселей
Высота : 556 пикселей
Соотношение сторон : 4:3
Соотношение сторон в оригинале : 4:3
Режим частоты кадров : Постоянный
Частота кадров : 25,000 кадров/сек
Цветовое пространство : YUV
Субдискретизация насыщенности : 4:2:0
Битовая глубина : 8 бит
Тип развёртки : Прогрессивная
Бит/(Пиксели*Кадры) : 0.236
Размер потока : 1,03 Гбайт (90%)
Библиотека кодирования : x264 core 133 r2334 a3ac64b
Настройки программы : cabac=1 / ref=11 / deblock=1:-3:-3 / analyse=0x3:0x113 / me=umh / subme=11 / psy=1 / psy_rd=1.00:0.20 / mixed_ref=1 / me_range=48 / chroma_me=1 / trellis=2 / 8x8dct=1 / cqm=0 / deadzone=21,11 / fast_pskip=0 / chroma_qp_offset=-3 / threads=3 / lookahead_threads=1 / sliced_threads=0 / nr=0 / decimate=0 / interlaced=0 / bluray_compat=0 / constrained_intra=0 / bframes=10 / b_pyramid=2 / b_adapt=2 / b_bias=0 / direct=3 / weightb=1 / open_gop=0 / weightp=2 / keyint=250 / keyint_min=25 / scenecut=40 / intra_refresh=0 / rc_lookahead=40 / rc=2pass / mbtree=0 / bitrate=2339 / ratetol=1.0 / qcomp=0.60 / qpmin=0 / qpmax=69 / qpstep=4 / cplxblur=20.0 / qblur=0.5 / vbv_maxrate=50000 / vbv_bufsize=50000 / nal_hrd=none / ip_ratio=1.40 / pb_ratio=1.30 / aq=1:1.00
Язык : Russian
Default : Да
Forced : Да
Аудио
Идентификатор : 2
Формат : AC-3
Формат/Информация : Audio Coding 3
Расширение режима : CM (complete main)
Параметр Endianness формата : Big
Идентификатор кодека : A_AC3
Продолжительность : 1 ч. 4 м.
Вид битрейта : Постоянный
Битрейт : 192 Кбит/сек
Каналы : 2 канала
Расположение каналов : Front: L R
Частота : 48,0 КГц
Битовая глубина : 16 бит
Метод сжатия : С потерями
Размер потока : 88,6 Мбайт (8%)
Заголовок : AC3 2.0 @ 192 kbps
Язык : Russian
Default : Да
Forced : Да
Меню
00:00:00.000 : :Chapter 01
00:03:29.000 : :Chapter 02
00:05:52.000 : :Chapter 03
00:06:38.000 : :Chapter 04
00:07:37.000 : :Chapter 05
00:09:37.000 : :Chapter 06
00:11:10.000 : :Chapter 07
00:14:13.000 : :Chapter 08
00:16:25.000 : :Chapter 09
00:19:14.000 : :Chapter 10
00:24:36.000 : :Chapter 11
00:27:22.000 : :Chapter 12
00:33:39.000 : :Chapter 13
00:35:18.000 : :Chapter 14
00:41:03.000 : :Chapter 15
00:46:24.000 : :Chapter 16
00:52:23.000 : :Chapter 17
00:54:28.000 : :Chapter 18
00:56:58.000 : :Chapter 19
00:59:32.000 : :Chapter 20
01:03:49.000 : :Chapter 21





   Похожие торренты   Торрент   Размер 
В этой теме нет новых непрочитанных сообщений. Снегурочку вызывали? (1985) SATRip

268 | 8

1.09 ГБ

В этой теме нет новых непрочитанных сообщений. Снегурочку вызывали? (1985) SATRip от RG MixTorrent

3 | 6

1.22 ГБ

В этой теме нет новых непрочитанных сообщений. Без обмана. Врача не вызывали ? [01] [02.09] (2015) SATRip

11 | 2

542.06 МБ

В этой теме нет новых непрочитанных сообщений. Врача вызывали? (2011) SATRip - BigFANGroup

0 | 2

1.26 ГБ

В этой теме нет новых непрочитанных сообщений. Без обмана. Врача не вызывали ? [01-02] (2015) SATRip, WEBRip

24 | 7

977.97 МБ

В этой теме нет новых непрочитанных сообщений. Среда обитания. Мастера вызывали? (2012) SATRip от RiperAM

4 | 2

608.45 МБ

В этой теме нет новых непрочитанных сообщений. Врача вызывали? (2011) DVDRip от NovaLan

48 | 29

1.46 ГБ




Вы не можете начинать темы
Вы не можете отвечать на сообщения
Вы не можете редактировать свои сообщения
Вы не можете удалять свои сообщения
Вы не можете добавлять вложения

Перейти:  
Для Мосгорсуда, Роскомнадзора и рекламодателей: mosgorsud-torrent[собачка]yandex.ru
 Вход
ppkBB3cker v.2 © 2008-2014 @ PPK
[ Time : 0.025s | 17 Queries | GZIP : Off ]

Торрент трекер RUTOR.IN, Не можете зайти на rutor.org? Какой новый адрес рутор? Какое зеркало рутор? Не работает rutor.org и зеркала? Тогда наш торрент специально для вас. Rutor.in неофициальное зеркало rutor. В случае если у Вас заблокирован rutor или вдруг Вы не можете на него зайти, то Вы без труда сможете скачать бесплатно и без рекламы последние новинки кино, игр, сериалов и прочего у нас, на Rutor.in. Не нужно использовать прокси, чтобы зайти на рутор, достаточно воспользоваться нашим ресурсом. Все новые фильмы, игры, сериалы, книги и музыка за 2013 и 2014 годы через торрент бесплатно. Скачивайте фильмы в хорошем качестве, игры для пк, xbox, playstation без регистрации. У нас вы найдете новые Зарубежные сериалы и Русские сериалы 2013, 2014, 2015 годов. Оставайтесь с нами, качайте любимые фильмы, игры, сериалы, книги и музыку.
cron