img image001 image001 image001 image001 image001 image001 image001 image001 image001 image001 image001 image001 image001 image001 image001 image001

Planets Sun Sun Sun
Статистика раздачи
Автор: Nickolas3434 | Размер: 750.42 МБ | Добавлен: 12 дек 2014
Раздают: 377    Качают: 35
Скачать торрент
Скачать торрент
Описание торрента

СообщениеДобавлено: 12 дек 2014 

Информация о фильме
Название: Sex, кофе, сигареты
Год выхода: 2014
Жанр: драма, комедия
Режиссер: Сергей Ольденбург-Свинцов
В ролях: Анна Чиповская, Антон Шагин, Кирилл Кяро, Роман Виктюк, Анна Старшенбаум, Кирилл Грацинский, Игорь Сергеев, Лидия Федосеева-Шукшина, Александр Баширов, Александр Песков

О фильме: Кого только не встретишь в московских ресторанах! Вам кажется — люди приходят сюда, чтобы насладиться вкусной едой или ароматным кофе с сигаретой? Отнюдь… Они приходят в рестораны, потому что здесь кипит бурная жизнь! Здесь покупают и продают кофейные плантации, здесь орудуют ловкие карманники и хладнокровные убийцы, здесь пишут диссертации о многообразии сексуальных отношений в мире насекомых… Здесь в укромных местах возникают мимолетные связи, здесь находят свою единственную любовь или расстаются навсегда.


Выпущено: Россия / Фильм №1
Продолжительность: 01:23:58
Озвучивание: Оригинальное [iTunes]

Файл
Формат: AVI (XviD)
Качество: WEB-DLRip
Видео: 1048 kb/s, 640x272
Аудио: AC3, 192 kb/s (2 ch)

Общее
Полное имя : D:ВидеоS3x.k0f3.s1garety.2014.O.WEB-DLRip by Vovan366(ExKinoRay).avi
Формат : AVI
Формат/Информация : Audio Video Interleave
Размер файла : 750 Мбайт
Продолжительность : 1 ч. 23 м.
Общий поток : 1249 Кбит/сек
Программа кодирования : VirtualDubMod 1.5.10.3 | www.virtualdub-fr.org || (build 2550/release)
Библиотека кодирования : VirtualDubMod build 2550/release

Видео
Идентификатор : 0
Формат : MPEG-4 Visual
Профиль формата : Advanced Simple@L5
Параметр BVOP формата : 2
Параметр QPel формата : Нет
Параметр GMC формата : Без точки перехода
Параметр матрицы формата : Выборочная
Идентификатор кодека : XVID
Идентификатор кодека/Подсказка : XviD
Продолжительность : 1 ч. 23 м.
Битрейт : 1048 Кбит/сек
Ширина : 640 пикселей
Высота : 272 пикселя
Соотношение сторон : 2,35:1
Частота кадров : 25,000 кадров/сек
Цветовое пространство : YUV
Субдискретизация насыщенности : 4:2:0
Битовая глубина : 8 бит
Тип развёртки : Прогрессивная
Метод сжатия : С потерями
Бит/(Пиксели*Кадры) : 0.241
Размер потока : 629 Мбайт (84%)
Библиотека кодирования : XviD 73

Аудио
Идентификатор : 1
Формат : AC-3
Формат/Информация : Audio Coding 3
Расширение режима : CM (complete main)
Параметр Endianness формата : Big
Идентификатор кодека : 2000
Продолжительность : 1 ч. 23 м.
Вид битрейта : Постоянный
Битрейт : 192 Кбит/сек
Каналы : 2 канала
Расположение каналов : Front: L R
Частота : 48,0 КГц
Битовая глубина : 16 бит
Метод сжатия : С потерями
Размер потока : 115 Мбайт (15%)
Выравнивание : Разделение по промежуткам
Продолжительность промежутка : 40 мс. (1,00 видеокадр)
Время предзагрузки промежутка : 500 мс.



Релиз от:



   Похожие торренты   Торрент   Размер 
В этой теме нет новых непрочитанных сообщений. Sex, кофе, сигареты (2014) WEB-DLRip | iTunes

3624 | 264

1.36 ГБ

В этой теме нет новых непрочитанных сообщений. Sex, кофе, сигареты (2014) WEB-DL 720p | iTunes

1794 | 103

2.57 ГБ

В этой теме нет новых непрочитанных сообщений. Sex, кофе, сигареты (2014) WEB-DLRip от MediaClub | КПК

347 | 27

374.65 МБ

В этой теме нет новых непрочитанных сообщений. Кофе и сигареты / Coffee and Cigarettes (2003) HDRip от Scarabey | P2

62 | 0

1.45 ГБ

В этой теме нет новых непрочитанных сообщений. ДОЛЛ (2014) WEB-DLRip-AVC от ExKinoRay | iTunes

51 | 3

368.12 МБ

В этой теме нет новых непрочитанных сообщений. Спираль (2014) WEB-DLRip-AVC от ExKinoRay | iTunes

178 | 54

1.67 ГБ

В этой теме нет новых непрочитанных сообщений. Дурак (2014) WEB-DLRip-AVC от ExKinoRay | iTunes

6734 | 297

1.65 ГБ




Вы не можете начинать темы
Вы не можете отвечать на сообщения
Вы не можете редактировать свои сообщения
Вы не можете удалять свои сообщения
Вы не можете добавлять вложения

Перейти:  
 Вход
ppkBB3cker v.2 © 2008-2014 @ PPK
[ Time : 0.027s | 18 Queries | GZIP : Off ]

cron