img image001 image001 image001 image001 image001 image001 image001 image001 image001 image001 image001 image001 image001 image001 image001

Planets Sun Sun Sun
Статистика раздачи
Автор: Nickolas3434 | Размер: 775.99 МБ | Добавлен: 12 дек 2014
Раздают: 49    Качают: 37
Скачать торрент
Скачать торрент
Описание торрента

СообщениеДобавлено: 12 дек 2014 

Страна: СССР
Производство: Студия Горького, Одесская киностудия

Жанр: фантастика, приключения, семейный
Год выпуска: 1941
Продолжительность: 01:28:17

Перевод: Не требуется
Cубтитры: нет
Оригинальная аудиодорожка: русский

Режиссер: Эдуард Пенцлин

В ролях:
Алексей Краснопольский, Павел Киянский, Андрей Сова, И.Козлов, А.Андриенко-Земсков, Юра Грамматикати, Роберт Росс, Николай Комиссаров...

Описание:
Во время Гражданской войны в Америке пятеро пленных бегут из осажденного Ричмонда на воздушном шаре. Ураган уносит их на необитаемый остров. Тысячи миль отделяют колонистов от обитаемой земли, а все их имущество — нож, часы и записная книжка…






Источник: DVD5 R5
Качество видео: DVDRip
Формат видео: AVI

Виде: 640x480 (4:3), 25 fps, XviD ~ 1091 kbps avg, 0.142 bit/pixel
Аудио: 48 kHz, MP3 2.0, 128 kbps

Раздача от:
Общее
Полное имя : Tainstvennii.ostrov.1941.DVDRip-745_[New-team]_by_AVP_Studio.avi
Формат : AVI
Формат/Информация : Audio Video Interleave
Размер файла : 776 Мбайт
Продолжительность : 1 ч. 28 м.
Общий поток : 1229 Кбит/сек
Программа кодирования : VirtualDubModRus 1.5.10.2 (build 2542/release)
Библиотека кодирования : VirtualDubMod build 2542/release

Видео
Идентификатор : 0
Формат : MPEG-4 Visual
Профиль формата : Advanced Simple@L5
Параметр BVOP формата : 1
Параметр QPel формата : Нет
Параметр GMC формата : Без точки перехода
Параметр матрицы формата : Выборочная
Идентификатор кодека : XVID
Идентификатор кодека/Подсказка : XviD
Продолжительность : 1 ч. 28 м.
Битрейт : 1091 Кбит/сек
Ширина : 640 пикселей
Высота : 480 пикселей
Соотношение сторон : 4:3
Частота кадров : 25,000 кадров/сек
Цветовое пространство : YUV
Субдискретизация насыщенности : 4:2:0
Битовая глубина : 8 бит
Тип развёртки : Прогрессивная
Метод сжатия : С потерями
Бит/(Пиксели*Кадры) : 0.142
Размер потока : 689 Мбайт (89%)
Библиотека кодирования : XviD 73

Аудио
Идентификатор : 1
Формат : MPEG Audio
Версия формата : Version 1
Профиль формата : Layer 3
Идентификатор кодека : 55
Идентификатор кодека/Подсказка : MP3
Продолжительность : 1 ч. 28 м.
Вид битрейта : Постоянный
Битрейт : 128 Кбит/сек
Каналы : 2 канала
Частота : 48,0 КГц
Метод сжатия : С потерями
Размер потока : 80,8 Мбайт (10%)
Выравнивание : Соединение по промежуткам
Продолжительность промежутка : 40 мс. (1,00 видеокадр)
Время предзагрузки промежутка : 504 мс.
Библиотека кодирования : LAME3.99r
Настройки программы : -m s -V 4 -q 2 -lowpass 17 -b 128





   Похожие торренты   Торрент   Размер 
В этой теме нет новых непрочитанных сообщений. Таинственный остров (1941) DVDRip-AVC от New-Team

112 | 21

1.46 ГБ

В этой теме нет новых непрочитанных сообщений. Таинственный остров (1941) DVDRip от New-Team

41 | 16

1.46 ГБ

В этой теме нет новых непрочитанных сообщений. Таинственный остров (1941) DVDRip-AVC

11 | 2

1 ГБ

В этой теме нет новых непрочитанных сообщений. Таинственный остров / Остров приключений / Mysterious Island (1961) BDRip от HQCLUB

14 | 8

1.45 ГБ

В этой теме нет новых непрочитанных сообщений. Таинственный остров (2008) DVDRip от Киномагия

44 | 4

1.37 ГБ

В этой теме нет новых непрочитанных сообщений. Таинственный остров / Mysterious Island (2011) DVDRip | den904

4 | 2

1.46 ГБ

В этой теме нет новых непрочитанных сообщений. Таинственный остров / Mysterious Island (2005) DVDRip от AndrewWhite

78 | 17

1.38 ГБ




Вы не можете начинать темы
Вы не можете отвечать на сообщения
Вы не можете редактировать свои сообщения
Вы не можете удалять свои сообщения
Вы не можете добавлять вложения

Перейти:  
Для Мосгорсуда, Роскомнадзора и рекламодателей: mosgorsud-torrent[собачка]yandex.ru
 Вход
ppkBB3cker v.2 © 2008-2014 @ PPK
[ Time : 0.059s | 15 Queries | GZIP : Off ]

Торрент трекер RUTOR.IN, Не можете зайти на rutor.org? Какой новый адрес рутор? Какое зеркало рутор? Не работает rutor.org и зеркала? Тогда наш торрент специально для вас. Rutor.in неофициальное зеркало rutor. В случае если у Вас заблокирован rutor или вдруг Вы не можете на него зайти, то Вы без труда сможете скачать бесплатно и без рекламы последние новинки кино, игр, сериалов и прочего у нас, на Rutor.in. Не нужно использовать прокси, чтобы зайти на рутор, достаточно воспользоваться нашим ресурсом. Все новые фильмы, игры, сериалы, книги и музыка за 2013 и 2014 годы через торрент бесплатно. Скачивайте фильмы в хорошем качестве, игры для пк, xbox, playstation без регистрации. У нас вы найдете новые Зарубежные сериалы и Русские сериалы 2013, 2014, 2015 годов. Оставайтесь с нами, качайте любимые фильмы, игры, сериалы, книги и музыку.