img image001 image001 image001 image001 image001 image001 image001 image001 image001 image001 image001 image001 image001 image001 image001

Planets Sun Sun Sun
Статистика раздачи
Автор: Nickolas3434 | Размер: 743.2 МБ | Добавлен: 12 дек 2014
Раздают: 332    Качают: 20
Скачать торрент
Скачать торрент
Описание торрента

СообщениеДобавлено: 12 дек 2014 

Страна: СССР
Производство: Государственное Управление Кинемотографии и фотографии (ГУКФ), Мосфильм

Жанр: приключения, семейный
Год выпуска: 1936
Продолжительность: 01:24:33

Перевод: Не требуется
Cубтитры: нет
Оригинальная аудиодорожка: русский

Режиссер: Владимир Вайншток

В ролях:
Николай Черкасов, Яков Сегель, Ольга Базанова, Давид Гутман, Мария Стрелкова, Михаил Романов, Николай Витовтов, А. Аделунг, Николай Мичурин, Юрий Юрьев...

Описание:
Один из самых популярных детских фильмов советского кино по одноименному роману Ж.Верна.. Отважная команда друзей отправляется на шхуне "Дункан" на поиски отважного путешественника капитана Гранта, потерпевшего крушение где-то в южном полушарии. Смелые путешественники пересекают Южную Америку и Австралию, достигают берегов Новой Зеландии и доказывают, что "кто ищет, тот всегда найдет"! Немалую часть успеха обусловила музыка и песни И.Дунаевского и игра Николая Черкасова в роли чудака-географа Жака Паганеля. Фильм пронизан духом романтики, а великолепный актерский ансамбль и всенародно любимая музыка, ставшая признанной классикой, сделали картину бессмертной…





Источник: DVD5 R5
Качество видео: DVDRip
Формат видео: AVI

Виде: 640x480 (4:3), 25 fps, XviD ~ 1091 kbps avg, 0.142 bit/pixel
Аудио: 48 kHz, MP3 2.0, 128 kbps

Раздача от:
Общее
Полное имя : Deti.kapitana.Granta.1936.DVDRip-745_[New-team]_by_AVP_Studio.avi
Формат : AVI
Формат/Информация : Audio Video Interleave
Размер файла : 743 Мбайт
Продолжительность : 1 ч. 24 м.
Общий поток : 1229 Кбит/сек
Программа кодирования : VirtualDubModRus 1.5.10.2 (build 2542/release)
Библиотека кодирования : VirtualDubMod build 2542/release

Видео
Идентификатор : 0
Формат : MPEG-4 Visual
Профиль формата : Advanced Simple@L5
Параметр BVOP формата : 1
Параметр QPel формата : Нет
Параметр GMC формата : Без точки перехода
Параметр матрицы формата : Выборочная
Идентификатор кодека : XVID
Идентификатор кодека/Подсказка : XviD
Продолжительность : 1 ч. 24 м.
Битрейт : 1091 Кбит/сек
Ширина : 640 пикселей
Высота : 480 пикселей
Соотношение сторон : 4:3
Частота кадров : 25,000 кадров/сек
Цветовое пространство : YUV
Субдискретизация насыщенности : 4:2:0
Битовая глубина : 8 бит
Тип развёртки : Прогрессивная
Метод сжатия : С потерями
Бит/(Пиксели*Кадры) : 0.142
Размер потока : 660 Мбайт (89%)
Библиотека кодирования : XviD 73

Аудио
Идентификатор : 1
Формат : MPEG Audio
Версия формата : Version 1
Профиль формата : Layer 3
Идентификатор кодека : 55
Идентификатор кодека/Подсказка : MP3
Продолжительность : 1 ч. 24 м.
Вид битрейта : Постоянный
Битрейт : 128 Кбит/сек
Каналы : 2 канала
Частота : 48,0 КГц
Метод сжатия : С потерями
Размер потока : 77,4 Мбайт (10%)
Выравнивание : Соединение по промежуткам
Продолжительность промежутка : 40 мс. (1,00 видеокадр)
Время предзагрузки промежутка : 504 мс.
Библиотека кодирования : LAME3.99r
Настройки программы : -m s -V 4 -q 2 -lowpass 17 -b 128





   Похожие торренты   Торрент   Размер 
В этой теме нет новых непрочитанных сообщений. Дети капитана Гранта (1936) DVDRip от New-Team

48 | 9

1.45 ГБ

В этой теме нет новых непрочитанных сообщений. Дети капитана Гранта (1936) DVDRip-AVC от New-Team

610 | 56

1.46 ГБ

В этой теме нет новых непрочитанных сообщений. Дети капитана Гранта (1936) DVDRip от Generalfilm

40 | 6

1.46 ГБ

В этой теме нет новых непрочитанных сообщений. Жюль Верн - Дети капитана Гранта (2010) MP3

120 | 23

1.38 ГБ

В этой теме нет новых непрочитанных сообщений. В поисках капитана Гранта (1985) 3xDVD9 от New-Team | Лицензия

6 | 0

23.15 ГБ

В этой теме нет новых непрочитанных сообщений. В поисках капитана Гранта (1985) DVDRip-AVC

390 | 51

7.66 ГБ

В этой теме нет новых непрочитанных сообщений. В поисках капитана Гранта (1985) DVDRip

572 | 62

7.87 ГБ




Вы не можете начинать темы
Вы не можете отвечать на сообщения
Вы не можете редактировать свои сообщения
Вы не можете удалять свои сообщения
Вы не можете добавлять вложения

Перейти:  
Для Мосгорсуда, Роскомнадзора и рекламодателей: mosgorsud-torrent[собачка]yandex.ru
 Вход
ppkBB3cker v.2 © 2008-2014 @ PPK
[ Time : 0.052s | 15 Queries | GZIP : Off ]

Торрент трекер RUTOR.IN, Не можете зайти на rutor.org? Какой новый адрес рутор? Какое зеркало рутор? Не работает rutor.org и зеркала? Тогда наш торрент специально для вас. Rutor.in неофициальное зеркало rutor. В случае если у Вас заблокирован rutor или вдруг Вы не можете на него зайти, то Вы без труда сможете скачать бесплатно и без рекламы последние новинки кино, игр, сериалов и прочего у нас, на Rutor.in. Не нужно использовать прокси, чтобы зайти на рутор, достаточно воспользоваться нашим ресурсом. Все новые фильмы, игры, сериалы, книги и музыка за 2013 и 2014 годы через торрент бесплатно. Скачивайте фильмы в хорошем качестве, игры для пк, xbox, playstation без регистрации. У нас вы найдете новые Зарубежные сериалы и Русские сериалы 2013, 2014, 2015 годов. Оставайтесь с нами, качайте любимые фильмы, игры, сериалы, книги и музыку.