img image001 image001 image001 image001 image001 image001 image001 image001 image001 image001 image001 image001 image001 image001 image001

Planets Sun Sun Sun
Статистика раздачи
Автор: Nickolas3434 | Размер: 1.45 ГБ | Добавлен: 14 дек 2014
Раздают: 42    Качают: 7
Скачать торрент
Скачать торрент
Описание торрента

СообщениеДобавлено: 14 дек 2014 

Страна: СССР
Производство: Союздетфильм

Жанр: драма, биография
Год выпуска: 1938
Продолжительность: 01:35:35

Перевод: Не требуется
Cубтитры: нет
Оригинальная аудиодорожка: русский

Режиссер: Марк Донской

В ролях:
Алексей Лярский, Варвара Массалитинова, Михаил Трояновский, Елизавета Алексеева, Вячеслав Новиков, Александр Жуков, К. Зюбко, Даниил Сагал, Сергей Тихонравов, Игорь Смирнов, Е. Мамаев, В. Хорошенчиков, Владимир Маслацов, Б. Родкевич, Н. Погодин, А. Корнеев, А. Лебедев...

Описание:
О Максиме Горьком на Западе знали как о русском, долго жившем на Капри. О Марке Донском — как об авторе гениальной трилогии «Детство», «В людях», «Мои университеты». Так уж случилось что режиссер, всю жизнь с огромным пиететом относившийся к каждой строчке повсеместно цитируемого им писателя, сделал Горького только цитатой из собственной жизни.
Конец 19 века. Нижний Новгород. Пристани, волжский говор, песни и люди - дурные и хорошие, несчастные и жестокие. В этой атмосфере прошло детство Алеши Пешкова, впоследствии великого русского писателя Максима Горького. Тяжело жилось ему в семье Кашириных: ругань, драки дядьев из-за наследства, побои за малейшие провинности. Только один человек - бабушка Акулина Ивановна - жалеет мальчика. Когда дед окончательно разорился, Алеша вынужден зарабатывать на жизнь сам. И он уходит "в люди"…






Источник: DVD9 R5
Качество видео: DVDRip
Формат видео: AVI

Виде: 704x528 (4:3), 25 fps, XviD ~ 1721 kbps avg, 0.185 bit/pixel
Аудио: 48 kHz, Dolby Digital AC3 5.1, 448 kbps

Раздача от:
Общее
Полное имя : Detstvo.Gorkogo.1938.DVDRip_[New-team]_by_AVP_Studio.avi
Формат : AVI
Формат/Информация : Audio Video Interleave
Размер файла : 1,45 Гбайт
Продолжительность : 1 ч. 35 м.
Общий поток : 2179 Кбит/сек
Программа кодирования : VirtualDubModRus 1.5.10.2 (build 2542/release)
Библиотека кодирования : VirtualDubMod build 2542/release

Видео
Идентификатор : 0
Формат : MPEG-4 Visual
Профиль формата : Advanced Simple@L5
Параметр BVOP формата : 1
Параметр QPel формата : Нет
Параметр GMC формата : Без точки перехода
Параметр матрицы формата : Выборочная
Идентификатор кодека : XVID
Идентификатор кодека/Подсказка : XviD
Продолжительность : 1 ч. 35 м.
Битрейт : 1721 Кбит/сек
Ширина : 704 пикселя
Высота : 528 пикселей
Соотношение сторон : 4:3
Частота кадров : 25,000 кадров/сек
Цветовое пространство : YUV
Субдискретизация насыщенности : 4:2:0
Битовая глубина : 8 бит
Тип развёртки : Прогрессивная
Метод сжатия : С потерями
Бит/(Пиксели*Кадры) : 0.185
Размер потока : 1,15 Гбайт (79%)
Библиотека кодирования : XviD 73

Аудио
Идентификатор : 1
Формат : AC-3
Формат/Информация : Audio Coding 3
Расширение режима : CM (complete main)
Параметр Endianness формата : Big
Идентификатор кодека : 2000
Продолжительность : 1 ч. 35 м.
Вид битрейта : Постоянный
Битрейт : 448 Кбит/сек
Каналы : 6 каналов
Расположение каналов : Front: L C R, Side: L R, LFE
Частота : 48,0 КГц
Битовая глубина : 16 бит
Метод сжатия : С потерями
Задержка видео : 40 мс.
Размер потока : 306 Мбайт (21%)
Выравнивание : Разделение по промежуткам
Продолжительность промежутка : 40 мс. (1,00 видеокадр)
Время предзагрузки промежутка : 500 мс





   Похожие торренты   Торрент   Размер 
В этой теме нет новых непрочитанных сообщений. Детство Горького (1938) DVDRip от New-Team

461 | 57

743.92 МБ

В этой теме нет новых непрочитанных сообщений. Детство Горького (1938) DVDRip-AVC от New-Team

209 | 18

1.46 ГБ

В этой теме нет новых непрочитанных сообщений. Комсомольск (1938) DVDRip-AVC от New-Team

37 | 9

1.46 ГБ

В этой теме нет новых непрочитанных сообщений. На границе (1938) DVDRip-AVC от New-Team

11 | 6

1.46 ГБ

В этой теме нет новых непрочитанных сообщений. Маска (1938) DVDRip-AVC от New-Team

19 | 12

372.12 МБ

В этой теме нет новых непрочитанных сообщений. Медведь (1938) DVDRip от New-Team

36 | 6

744.96 МБ

В этой теме нет новых непрочитанных сообщений. В людях (1938) DVDRip-AVC от New-Team

9 | 22

1.46 ГБ




Вы не можете начинать темы
Вы не можете отвечать на сообщения
Вы не можете редактировать свои сообщения
Вы не можете удалять свои сообщения
Вы не можете добавлять вложения

Перейти:  
Для Мосгорсуда, Роскомнадзора и рекламодателей: mosgorsud-torrent[собачка]yandex.ru
 Вход
ppkBB3cker v.2 © 2008-2014 @ PPK
[ Time : 0.049s | 15 Queries | GZIP : Off ]

Торрент трекер RUTOR.IN, Не можете зайти на rutor.org? Какой новый адрес рутор? Какое зеркало рутор? Не работает rutor.org и зеркала? Тогда наш торрент специально для вас. Rutor.in неофициальное зеркало rutor. В случае если у Вас заблокирован rutor или вдруг Вы не можете на него зайти, то Вы без труда сможете скачать бесплатно и без рекламы последние новинки кино, игр, сериалов и прочего у нас, на Rutor.in. Не нужно использовать прокси, чтобы зайти на рутор, достаточно воспользоваться нашим ресурсом. Все новые фильмы, игры, сериалы, книги и музыка за 2013 и 2014 годы через торрент бесплатно. Скачивайте фильмы в хорошем качестве, игры для пк, xbox, playstation без регистрации. У нас вы найдете новые Зарубежные сериалы и Русские сериалы 2013, 2014, 2015 годов. Оставайтесь с нами, качайте любимые фильмы, игры, сериалы, книги и музыку.