img image001 image001 image001 image001 image001 image001 image001 image001 image001 image001 image001 image001 image001 image001 image001

Planets Sun Sun Sun
Статистика раздачи
Автор: Nickolas3434 | Размер: 1.46 ГБ | Добавлен: 14 дек 2014
Раздают: 449    Качают: 21
Скачать торрент
Скачать торрент
Описание торрента

СообщениеДобавлено: 14 дек 2014 


Страна: Россия / Dreamteam Media, Kinokompaniya «MorozFilm», Ministerstvo kultury Rossiyskoy Federatsii, U-Film Malta

Жанр: приключения, фантастика
Год выпуска: 2014
Продолжительность: 01:36:10

Перевод: Не требуется
Cубтитры: нет
Оригинальная аудиодорожка: русский

Режиссер: Юрий Мороз

В ролях: Максим Матвеев, Анна Старшенбаум, Максим Виноградов, Лайа Коста, Кирилл Плетнёв, Хосе Анхель Эхидо, Михаил Горевой, Андрей Мерзликин, Рамон Ланга, Амаду Мамадаков...

Описание: Раскрыта одна из главных интриг российской истории! Как вышло, что в XIX веке Россия навсегда лишилась своих земель в Северной Америке? Ведь ей принадлежала огромная территория от Аляски до Северной Калифорнии! В поисках ответа группа тележурналистов — интеллектуал Дмитрий, простодушный Фимка и красавица Марго — путешествуют во времени и пространстве, попадая то в царские дворцы, то в вигвамы индейцев.



Качество: DVDRip-AVC / DVD5 R5 от «CD Land»
Формат: MKV

Видео: 704x442@1018x442 (2.30:1), 25.000 fps, MPEG-4 AVC, ~1717 kbps avg, 0.218 bit/pix
Аудио: 48 kHz, Dolby AC3, 6 ch, 448 kbps, русский

Раздача от:
General
Format : Matroska
Format version : Version 2
File size : 1.46 GiB
Duration : 1h 36mn
Overall bit rate : 2 166 Kbps
Encoded date : UTC 2014-12-11 20:36:00
Writing application : mkvmerge v6.1.0 ('Old Devil') built on Mar 4 2013 09:10:42
Writing library : libebml v1.3.0 + libmatroska v1.4.0

Video
ID : 1
Format : AVC
Format/Info : Advanced Video Codec
Format profile : High@L4.1
Format settings, CABAC : Yes
Format settings, ReFrames : 8 frames
Codec ID : V_MPEG4/ISO/AVC
Duration : 1h 36mn
Bit rate : 1 717 Kbps
Width : 712 pixels
Height : 442 pixels
Display aspect ratio : 2.35:1
Original display aspect ratio : 2.35:1
Frame rate mode : Constant
Frame rate : 25.000 fps
Color space : YUV
Chroma subsampling : 4:2:0
Bit depth : 8 bits
Scan type : Progressive
Bits/(Pixel*Frame) : 0.218
Stream size : 1.13 GiB (77%)
Writing library : x264 core 138 r2356 a1d3d17
Encoding settings : cabac=1 / ref=8 / deblock=1:-2:-1 / analyse=0x3:0x113 / me=umh / subme=10 / psy=1 / psy_rd=1.00:0.05 / mixed_ref=1 / me_range=32 / chroma_me=1 / trellis=2 / 8x8dct=1 / cqm=0 / deadzone=21,11 / fast_pskip=0 / chroma_qp_offset=-3 / threads=9 / lookahead_threads=1 / sliced_threads=0 / nr=0 / decimate=0 / interlaced=0 / bluray_compat=0 / constrained_intra=0 / bframes=8 / b_pyramid=2 / b_adapt=2 / b_bias=0 / direct=3 / weightb=1 / open_gop=0 / weightp=2 / keyint=250 / keyint_min=25 / scenecut=40 / intra_refresh=0 / rc=2pass / mbtree=0 / bitrate=1717 / ratetol=1.0 / qcomp=0.60 / qpmin=0 / qpmax=69 / qpstep=4 / cplxblur=20.0 / qblur=0.5 / ip_ratio=1.40 / pb_ratio=1.30 / aq=1:1.00
Default : Yes
Forced : No

Audio
ID : 2
Format : AC-3
Format/Info : Audio Coding 3
Mode extension : CM (complete main)
Format settings, Endianness : Big
Codec ID : A_AC3
Duration : 1h 36mn
Bit rate mode : Constant
Bit rate : 448 Kbps
Channel(s) : 6 channels
Channel positions : Front: L C R, Side: L R, LFE
Sampling rate : 48.0 KHz
Bit depth : 16 bits
Compression mode : Lossy
Stream size : 308 MiB (21%)
Default : Yes
Forced : No





   Похожие торренты   Торрент   Размер 
В этой теме нет новых непрочитанных сообщений. Форт Росс: В поисках приключений (2014) DVDRip от New-Team | лицензия

2557 | 147

1.46 ГБ

В этой теме нет новых непрочитанных сообщений. Форт Росс: В поисках приключений (2014) DVD5 от New-Team | Лицензия

209 | 30

4.24 ГБ

В этой теме нет новых непрочитанных сообщений. Форт Росс: В поисках приключений (2014) WEB-DLRip от ALC

787 | 34

1.37 ГБ

В этой теме нет новых непрочитанных сообщений. Форт Росс: В поисках приключений (2014) WEBRip

228 | 16

699.68 МБ

В этой теме нет новых непрочитанных сообщений. Форт Росс: В поисках приключений (2014) WEBRip

1790 | 84

1.37 ГБ

В этой теме нет новых непрочитанных сообщений. Форт Росс: В поисках приключений (2014) WEB-DLRip 720p

435 | 33

2.84 ГБ

В этой теме нет новых непрочитанных сообщений. Форт Росс: В поисках приключений (2014) WEB-DLRip 1080p

304 | 13

3.08 ГБ




Вы не можете начинать темы
Вы не можете отвечать на сообщения
Вы не можете редактировать свои сообщения
Вы не можете удалять свои сообщения
Вы не можете добавлять вложения

Перейти:  
Для Мосгорсуда, Роскомнадзора и рекламодателей: mosgorsud-torrent[собачка]yandex.ru
 Вход
ppkBB3cker v.2 © 2008-2014 @ PPK
[ Time : 0.868s | 15 Queries | GZIP : Off ]
CGP output time : 0.025s | 5 Queries | GZIP : Off

Торрент трекер RUTOR.IN, Не можете зайти на rutor.org? Какой новый адрес рутор? Какое зеркало рутор? Не работает rutor.org и зеркала? Тогда наш торрент специально для вас. Rutor.in неофициальное зеркало rutor. В случае если у Вас заблокирован rutor или вдруг Вы не можете на него зайти, то Вы без труда сможете скачать бесплатно и без рекламы последние новинки кино, игр, сериалов и прочего у нас, на Rutor.in. Не нужно использовать прокси, чтобы зайти на рутор, достаточно воспользоваться нашим ресурсом. Все новые фильмы, игры, сериалы, книги и музыка за 2013 и 2014 годы через торрент бесплатно. Скачивайте фильмы в хорошем качестве, игры для пк, xbox, playstation без регистрации. У нас вы найдете новые Зарубежные сериалы и Русские сериалы 2013, 2014, 2015 годов. Оставайтесь с нами, качайте любимые фильмы, игры, сериалы, книги и музыку.