img image001 image001 image001 image001 image001 image001 image001 image001 image001 image001 image001 image001 image001 image001 image001

Planets Sun Sun Sun
Статистика раздачи
Автор: Nickolas3434 | Размер: 1.46 ГБ | Добавлен: 14 дек 2014
Раздают: 840    Качают: 94
Скачать торрент
Скачать торрент
Описание торрента

СообщениеДобавлено: 14 дек 2014 

«Как всё это случилось?»




Страна: Россия / Студия Тритэ

Жанр: драма
Год выпуска: 2014
Продолжительность: 02:53:00

Перевод: Не требуется
Cубтитры: нет
Оригинальная аудиодорожка: русский

Режиссер: Никита Михалков

В ролях: Мартиньш Калита, Виктория Соловьева, Сергей Серов, Алёна Спивак-Бычкова, Наталья Суркова, Денис Васильев, Ксения Попович, Олег Граф, Вадим Головко, Андрей Попович...

Роли дублировали: Евгений Миронов

Описание: История любви поручика и прекрасной незнакомки, обрушившейся на них, как солнечный удар. Познакомившись на пароходе, герои сходят на берег в маленьком уездном городке Павлино, где проводят в гостинице одну единственную ночь вместе. Наутро женщина исчезает - ее дома ждут супруг и дочка. А поручик спустя годы не может забыть потрясшее его любовное приключение.



Качество: DVDRip / DVD9 R5 от «CD Land»
Формат: AVI

Видео: 720x304 (2.37:1), 25.000 fps, XviD, ~1068 kbps avg, 0.195 bit/pix
Аудио: 48 kHz, Dolby МР3, 2 ch, 128 kbps, русский

Раздача от:
General
Format : AVI
Format/Info : Audio Video Interleave
File size : 1.46 GiB
Duration : 2h 53mn
Overall bit rate : 1 205 Kbps
Writing application : VirtualDubMod 1.5.10.3 | www.virtualdub-fr.org || (build 2550/release)
Writing library : VirtualDubMod build 2550/release

Video
ID : 0
Format : MPEG-4 Visual
Format profile : Advanced Simple@L5
Format settings, BVOP : 1
Format settings, QPel : No
Format settings, GMC : No warppoints
Format settings, Matrix : Custom
Codec ID : XVID
Codec ID/Hint : XviD
Duration : 2h 53mn
Bit rate : 1 068 Kbps
Width : 720 pixels
Height : 304 pixels
Display aspect ratio : 2.35:1
Frame rate : 25.000 fps
Color space : YUV
Chroma subsampling : 4:2:0
Bit depth : 8 bits
Scan type : Progressive
Compression mode : Lossy
Bits/(Pixel*Frame) : 0.195
Stream size : 1.29 GiB (89%)
Writing library : XviD 73

Audio
ID : 1
Format : MPEG Audio
Format version : Version 1
Format profile : Layer 3
Codec ID : 55
Codec ID/Hint : MP3
Duration : 2h 53mn
Bit rate mode : Constant
Bit rate : 128 Kbps
Channel(s) : 2 channels
Sampling rate : 48.0 KHz
Compression mode : Lossy
Stream size : 158 MiB (11%)
Alignment : Aligned on interleaves
Interleave, duration : 40 ms (1.00 video frame)
Interleave, preload duration : 504 ms





   Похожие торренты   Торрент   Размер 
В этой теме нет новых непрочитанных сообщений. Солнечный удар (2014) DVDRip от New-Team | лицензия

376 | 23

2.19 ГБ

В этой теме нет новых непрочитанных сообщений. Солнечный удар (2014) DVDRip-AVC от New-Team | лицензия

173 | 12

2.91 ГБ

В этой теме нет новых непрочитанных сообщений. Солнечный удар (2014) DVD9 от New-Team | Лицензия

196 | 18

7.05 ГБ

В этой теме нет новых непрочитанных сообщений. Солнечный удар (2014) HDTVRip от New-Team

697 | 12

1.46 ГБ

В этой теме нет новых непрочитанных сообщений. Солнечный удар (2014) HDTVRip-AVC от New-Team

394 | 15

2.18 ГБ

В этой теме нет новых непрочитанных сообщений. Солнечный удар (2014) HDRip-AVC | Лицензия

592 | 32

3.16 ГБ

В этой теме нет новых непрочитанных сообщений. Тепловой удар / Солнечный удар / Heatstroke (2013) BDRemux 1080p от NovaLan

31 | 23

18.49 ГБ




Вы не можете начинать темы
Вы не можете отвечать на сообщения
Вы не можете редактировать свои сообщения
Вы не можете удалять свои сообщения
Вы не можете добавлять вложения

Перейти:  
Для Мосгорсуда, Роскомнадзора и рекламодателей: mosgorsud-torrent[собачка]yandex.ru
 Вход
ppkBB3cker v.2 © 2008-2014 @ PPK
[ Time : 0.039s | 19 Queries | GZIP : Off ]

cron