img image001 image001 image001 image001 image001 image001 image001 image001 image001 image001 image001 image001 image001 image001 image001

Planets Sun Sun Sun
Статистика раздачи
Автор: Nickolas3434 | Размер: 743.92 МБ | Добавлен: 14 дек 2014
Раздают: 461    Качают: 57
Скачать торрент
Скачать торрент
Описание торрента

СообщениеДобавлено: 14 дек 2014 

Страна: СССР
Производство: Союздетфильм

Жанр: драма, биография
Год выпуска: 1938
Продолжительность: 01:35:35

Перевод: Не требуется
Cубтитры: нет
Оригинальная аудиодорожка: русский

Режиссер: Марк Донской

В ролях:
Алексей Лярский, Варвара Массалитинова, Михаил Трояновский, Елизавета Алексеева, Вячеслав Новиков, Александр Жуков, К. Зюбко, Даниил Сагал, Сергей Тихонравов, Игорь Смирнов, Е. Мамаев, В. Хорошенчиков, Владимир Маслацов, Б. Родкевич, Н. Погодин, А. Корнеев, А. Лебедев...

Описание:
О Максиме Горьком на Западе знали как о русском, долго жившем на Капри. О Марке Донском — как об авторе гениальной трилогии «Детство», «В людях», «Мои университеты». Так уж случилось что режиссер, всю жизнь с огромным пиететом относившийся к каждой строчке повсеместно цитируемого им писателя, сделал Горького только цитатой из собственной жизни.
Конец 19 века. Нижний Новгород. Пристани, волжский говор, песни и люди - дурные и хорошие, несчастные и жестокие. В этой атмосфере прошло детство Алеши Пешкова, впоследствии великого русского писателя Максима Горького. Тяжело жилось ему в семье Кашириных: ругань, драки дядьев из-за наследства, побои за малейшие провинности. Только один человек - бабушка Акулина Ивановна - жалеет мальчика. Когда дед окончательно разорился, Алеша вынужден зарабатывать на жизнь сам. И он уходит "в люди"…






Источник: DVD9 R5
Качество видео: DVDRip
Формат видео: AVI

Виде: 576x432 (4:3), 25 fps, XviD ~ 950 kbps avg, 0.153 bit/pixel
Аудио: 48 kHz, MP3 2.0, 128 kbps

Раздача от:
Общее
Полное имя : Detstvo.Gorkogo.1938.DVDRip-745_[New-team]_by_AVP_Studio.avi
Формат : AVI
Формат/Информация : Audio Video Interleave
Размер файла : 744 Мбайт
Продолжительность : 1 ч. 35 м.
Общий поток : 1088 Кбит/сек
Программа кодирования : VirtualDubModRus 1.5.10.2 (build 2542/release)
Библиотека кодирования : VirtualDubMod build 2542/release

Видео
Идентификатор : 0
Формат : MPEG-4 Visual
Профиль формата : Advanced Simple@L5
Параметр BVOP формата : 1
Параметр QPel формата : Нет
Параметр GMC формата : Без точки перехода
Параметр матрицы формата : Выборочная
Идентификатор кодека : XVID
Идентификатор кодека/Подсказка : XviD
Продолжительность : 1 ч. 35 м.
Битрейт : 950 Кбит/сек
Ширина : 576 пикселей
Высота : 432 пикселя
Соотношение сторон : 4:3
Частота кадров : 25,000 кадров/сек
Цветовое пространство : YUV
Субдискретизация насыщенности : 4:2:0
Битовая глубина : 8 бит
Тип развёртки : Прогрессивная
Метод сжатия : С потерями
Бит/(Пиксели*Кадры) : 0.153
Размер потока : 650 Мбайт (87%)
Библиотека кодирования : XviD 73

Аудио
Идентификатор : 1
Формат : MPEG Audio
Версия формата : Version 1
Профиль формата : Layer 3
Идентификатор кодека : 55
Идентификатор кодека/Подсказка : MP3
Продолжительность : 1 ч. 35 м.
Вид битрейта : Постоянный
Битрейт : 128 Кбит/сек
Каналы : 2 канала
Частота : 48,0 КГц
Метод сжатия : С потерями
Размер потока : 87,5 Мбайт (12%)
Выравнивание : Соединение по промежуткам
Продолжительность промежутка : 40 мс. (1,00 видеокадр)
Время предзагрузки промежутка : 504 мс.
Библиотека кодирования : LAME3.99r
Настройки программы : -m s -V 4 -q 2 -lowpass 17 -b 128





   Похожие торренты   Торрент   Размер 
В этой теме нет новых непрочитанных сообщений. Детство Горького (1938) DVDRip-AVC от New-Team

210 | 16

1.46 ГБ

В этой теме нет новых непрочитанных сообщений. Детство Горького (1938) DVDRip от New-Team

42 | 8

1.45 ГБ

В этой теме нет новых непрочитанных сообщений. На границе (1938) DVDRip от New-Team

9 | 9

744.51 МБ

В этой теме нет новых непрочитанных сообщений. В людях (1938) DVDRip-AVC от New-Team

10 | 23

1.46 ГБ

В этой теме нет новых непрочитанных сообщений. На границе (1938) DVDRip-AVC от New-Team

11 | 6

1.46 ГБ

В этой теме нет новых непрочитанных сообщений. Медведь (1938) DVDRip-AVC от New-Team

131 | 17

744.43 МБ

В этой теме нет новых непрочитанных сообщений. В людях (1938) DVDRip от New-Team

6 | 6

743.93 МБ




Вы не можете начинать темы
Вы не можете отвечать на сообщения
Вы не можете редактировать свои сообщения
Вы не можете удалять свои сообщения
Вы не можете добавлять вложения

Перейти:  
Для Мосгорсуда, Роскомнадзора и рекламодателей: mosgorsud-torrent[собачка]yandex.ru
 Вход
ppkBB3cker v.2 © 2008-2014 @ PPK
[ Time : 3.316s | 15 Queries | GZIP : Off ]

Торрент трекер RUTOR.IN, Не можете зайти на rutor.org? Какой новый адрес рутор? Какое зеркало рутор? Не работает rutor.org и зеркала? Тогда наш торрент специально для вас. Rutor.in неофициальное зеркало rutor. В случае если у Вас заблокирован rutor или вдруг Вы не можете на него зайти, то Вы без труда сможете скачать бесплатно и без рекламы последние новинки кино, игр, сериалов и прочего у нас, на Rutor.in. Не нужно использовать прокси, чтобы зайти на рутор, достаточно воспользоваться нашим ресурсом. Все новые фильмы, игры, сериалы, книги и музыка за 2013 и 2014 годы через торрент бесплатно. Скачивайте фильмы в хорошем качестве, игры для пк, xbox, playstation без регистрации. У нас вы найдете новые Зарубежные сериалы и Русские сериалы 2013, 2014, 2015 годов. Оставайтесь с нами, качайте любимые фильмы, игры, сериалы, книги и музыку.