img image001 image001 image001 image001 image001 image001 image001 image001 image001 image001 image001 image001 image001 image001 image001

Planets Sun Sun Sun
Статистика раздачи
Автор: Nickolas3434 | Размер: 4.74 ГБ | Добавлен: 14 дек 2014
Раздают: 169    Качают: 47
Скачать торрент
Скачать торрент
Описание торрента

СообщениеДобавлено: 14 дек 2014 

Информация о фильме
Оригинальное название: 12 месяцев
Год выхода: 2013
Жанр: Комедия
Режиссер: Александр Баршак
В ролях: Иван Дорн, Артур Смольянинов, Екатерина Гусева, Армен Джигарханян, Александр Головин, Мария Сёмкина, Илья Ковальчук, Евгений Малкин, Максим Виторган, Александр Емельяненко

О фильме:
О чем может мечтать провинциальная девчонка, приехавшая покорять Москву? У главной героини фильма Маши Смирновой уже имеется список заветных желаний: грудь третьего размера, роскошная шуба, отдельная квартира, любовь и карьера звезды шоу-бизнеса. Когда в руки девушки попадает сказочная книга «12 месяцев», её мечты неожиданно начинают сбываться! Но у каждой медали есть оборотная сторона: желания Маши причиняют вред ее любимым людям. Теперь девушка должна сама бескорыстно творить «чудеса» для других, чтобы спасти своих близких и вернуть свою настоящую любовь.


Страна: Россия
Студия: Viking
Продолжительность: 01:32:26
Язык: Русский

Файл
Кодек: MPEG-4 AVC
Качество: HDTV 1080i
Видео: 6400 Кбит/с, 1920x1080, 25.000 кадр/с
Звук: Русский (АС3, 6 ch, 384 Кбит/с) / (MP2, 2 ch, 192 Кбит/с)

Семпл


Общее
Идентификатор : 17 (0x11)
Полное имя : 12.mesjacev.2013.HDTV(1080i).MediaClub.ts
Формат : MPEG-TS
Размер файла : 4,74 Гбайт
Продолжительность : 1 ч. 32 м.
Режим общего битрейта : Переменный
Общий поток : 7345 Кбит/сек

Видео
Идентификатор : 304 (0x130)
Идентификатор меню : 17104 (0x42D0)
Формат : AVC
Формат/Информация : Advanced Video Codec
Профиль формата : High@L4.0
Параметр CABAC формата : Да
Параметр ReFrames формата : 4 кадра
Параметр GOP формата : M=4, N=28
Идентификатор кодека : 27
Продолжительность : 1 ч. 32 м.
Битрейт : 6400 Кбит/сек
Ширина : 1920 пикселей
Высота : 1080 пикселей
Соотношение сторон : 16:9
Частота кадров : 25,000 кадров/сек
Стандарт вещания : Component
Цветовое пространство : YUV
Субдискретизация насыщенности : 4:2:0
Битовая глубина : 8 бит
Тип развёртки : Чересстрочная
Порядок развёртки : Верхнее поле первое
Бит/(Пиксели*Кадры) : 0.123
Размер потока : 4,13 Гбайт (87%)
Основные цвета : BT.709
Характеристики трансфера : BT.709
Коэффициенты матрицы : BT.709

Аудио #1
Идентификатор : 404 (0x194)
Идентификатор меню : 17104 (0x42D0)
Формат : MPEG Audio
Версия формата : Version 1
Профиль формата : Layer 2
Идентификатор кодека : 4
Продолжительность : 1 ч. 32 м.
Вид битрейта : Постоянный
Битрейт : 192 Кбит/сек
Каналы : 2 канала
Частота : 48,0 КГц
Метод сжатия : С потерями
Задержка видео : -1 с. 30 мс.
Размер потока : 127 Мбайт (3%)
Язык : Russian
Язык, дополнительно : Clean effects

Аудио #2
Идентификатор : 424 (0x1A8)
Идентификатор меню : 17104 (0x42D0)
Формат : AC-3
Формат/Информация : Audio Coding 3
Расширение режима : CM (complete main)
Параметр Endianness формата : Big
Идентификатор кодека : 6
Продолжительность : 1 ч. 32 м.
Вид битрейта : Постоянный
Битрейт : 384 Кбит/сек
Каналы : 6 каналов
Расположение каналов : Front: L C R, Side: L R, LFE
Частота : 48,0 КГц
Битовая глубина : 16 бит
Метод сжатия : С потерями
Задержка видео : -942 мс.
Размер потока : 254 Мбайт (5%)
Язык : Russian
Язык, дополнительно : Clean effects

Меню
Идентификатор : 1704 (0x6A8)
Идентификатор меню : 17104 (0x42D0)
Продолжительность : 1 ч. 32 м.
Список : 304 (0x130) (AVC) / 404 (0x194) (MPEG Audio, Russian) / 424 (0x1A8) (AC-3, Russian)
Язык : / Russian / Russian


Релиз от:



   Похожие торренты   Торрент   Размер 
В этой теме нет новых непрочитанных сообщений. 9 месяцев строгого режима / 9 mois ferme (2013) HDRip от MediaClub | КПК

141 | 23

311.65 МБ

В этой теме нет новых непрочитанных сообщений. 12 месяцев / 12 месяцев (2013) DVDRip

473 | 26

1.46 ГБ

В этой теме нет новых непрочитанных сообщений. Сектор Зеро / Section zéro [01-04 из 8] (2016) HDTV 1080i HDTV 1080i от MediaClub | P

10 | 3

9.5 ГБ

В этой теме нет новых непрочитанных сообщений. Шеф 2 [01-02 из 32] (2013) HDTV 1080i от MediaClub

2 | 0

15.5 ГБ

В этой теме нет новых непрочитанных сообщений. Шеф 2 [01-02 из 32] (2013) HDTV 1080i от MediaClub

20 | 6

20.24 ГБ

В этой теме нет новых непрочитанных сообщений. Шеф 2 [01-02 из 32] (2013) HDTV 1080i от MediaClub

8 | 2

5.4 ГБ

В этой теме нет новых непрочитанных сообщений. Альпинисты (2013) HDTV 1080i от MediaClub

80 | 12

5.24 ГБ




Вы не можете начинать темы
Вы не можете отвечать на сообщения
Вы не можете редактировать свои сообщения
Вы не можете удалять свои сообщения
Вы не можете добавлять вложения

Перейти:  
Для Мосгорсуда, Роскомнадзора и рекламодателей: mosgorsud-torrent[собачка]yandex.ru
 Вход
ppkBB3cker v.2 © 2008-2014 @ PPK
[ Time : 0.065s | 15 Queries | GZIP : Off ]

Торрент трекер RUTOR.IN, Не можете зайти на rutor.org? Какой новый адрес рутор? Какое зеркало рутор? Не работает rutor.org и зеркала? Тогда наш торрент специально для вас. Rutor.in неофициальное зеркало rutor. В случае если у Вас заблокирован rutor или вдруг Вы не можете на него зайти, то Вы без труда сможете скачать бесплатно и без рекламы последние новинки кино, игр, сериалов и прочего у нас, на Rutor.in. Не нужно использовать прокси, чтобы зайти на рутор, достаточно воспользоваться нашим ресурсом. Все новые фильмы, игры, сериалы, книги и музыка за 2013 и 2014 годы через торрент бесплатно. Скачивайте фильмы в хорошем качестве, игры для пк, xbox, playstation без регистрации. У нас вы найдете новые Зарубежные сериалы и Русские сериалы 2013, 2014, 2015 годов. Оставайтесь с нами, качайте любимые фильмы, игры, сериалы, книги и музыку.